The New Mutants 2020 1080p 10bit BluRay AAC 7.1 X265 HEVC - MoviePirate - Telly

Torrent Details

The New Mutants 2020 1080p 10bit BluRay AAC 7.1 x265 HEVC - MoviePirate - Telly

NAME
The New Mutants 2020 1080p 10bit BluRay AAC 7.1 x265 HEVC - MoviePirate - Telly.torrent
CATEGORY
Movies
INFOHASH
cc2eb5e4553e87dfda41054e42975be2c4a0c467
SIZE
2 GB in 1 file
ADDED
Uploaded on 09-11-2020 by our crawler pet called "Spidey".
SWARM
1 seeders & 2 peers
RATING
No votes yet.

Please login to vote for this torrent.


Description



General
Unique ID                                : 180579410272879601972461115948732267983 (0x87DA5450D5910C2C8C708AD528C43DCF)
Complete name                            : G:The New Mutants 2020 1080p 10bit BluRay AAC 7.1 x265 HEVC - MoviePirate - Telly.mkv
Format                                   : Matroska
Format version                           : Version 4
File size                                : 1.97 GiB
Duration                                 : 1 h 34 min
Overall bit rate                         : 2 999 kb/s
Movie name                               : MoviePirate - Team Telly
Encoded date                             : UTC 2020-11-09 08:33:17
Writing application                      : mkvmerge v39.0.0 ('In The Waiting Line') 64-bit
Writing library                          : libebml v1.3.9 + libmatroska v1.5.2
Video
ID                                       : 1
Format                                   : HEVC
Format/Info                              : High Efficiency Video Coding
Format profile                           : Main [email protected]@Main
Codec ID                                 : V_MPEGH/ISO/HEVC
Duration                                 : 1 h 34 min
Bit rate                                 : 2 512 kb/s
Width                                    : 1 920 pixels
Height                                   : 1 040 pixels
Display aspect ratio                     : 1.85:1
Frame rate mode                          : Constant
Frame rate                               : 23.976 (24000/1001) FPS
Color space                              : YUV
Chroma subsampling                       : 4:2:0
Bit depth                                : 10 bits
Bits/(Pixel*Frame)                       : 0.052
Stream size                              : 1.65 GiB (84%)
Title                                    : MoviePirate - Team Telly
Writing library                          : x265 3.2+9-971180b100f8:[Windows][GCC 9.2.0][64 bit] 10bit
Encoding settings                        : cpuid=1049583 / frame-threads=3 / numa-pools=8 / wpp / no-pmode / no-pme / no-psnr / no-ssim / log-level=2 / input-csp=1 / input-res=1920x1040 / interlace=0 / total-frames=135319 / level-idc=0 / high-tier=1 / uhd-bd=0 / ref=2 / no-allow-non-conformance / no-repeat-headers / annexb / no-aud / no-hrd / info / hash=0 / no-temporal-layers / open-gop / min-keyint=23 / keyint=250 / gop-lookahead=0 / bframes=4 / b-adapt=0 / b-pyramid / bframe-bias=0 / rc-lookahead=15 / lookahead-slices=6 / scenecut=40 / radl=0 / no-splice / no-intra-refresh / ctu=64 / min-cu-size=8 / no-rect / no-amp / max-tu-size=32 / tu-inter-depth=1 / tu-intra-depth=1 / limit-tu=0 / rdoq-level=0 / dynamic-rd=0.00 / no-ssim-rd / signhide / no-tskip / nr-intra=0 / nr-inter=0 / no-constrained-intra / strong-intra-smoothing / max-merge=2 / limit-refs=3 / no-limit-modes / me=1 / subme=2 / merange=57 / temporal-mvp / no-frame-dup / no-hme / weightp / no-weightb / no-analyze-src-pics / deblock=0:0 / sao / no-sao-non-deblock / rd=2 / selective-sao=4 / early-skip / rskip / fast-intra / no-tskip-fast / no-cu-lossless / no-b-intra / no-splitrd-skip / rdpenalty=0 / psy-rd=2.00 / psy-rdoq=0.00 / no-rd-refine / no-lossless / cbqpoffs=0 / crqpoffs=0 / rc=abr / bitrate=2484 / qcomp=0.60 / qpstep=4 / stats-write=0 / stats-read=0 / ipratio=1.40 / pbratio=1.30 / aq-mode=2 / aq-strength=1.00 / cutree / zone-count=0 / no-strict-cbr / qg-size=32 / no-rc-grain / qpmax=69 / qpmin=0 / no-const-vbv / sar=0 / overscan=0 / videoformat=5 / range=0 / colorprim=2 / transfer=2 / colormatrix=2 / chromaloc=0 / display-window=0 / cll=0,0 / min-luma=0 / max-luma=1023 / log2-max-poc-lsb=8 / vui-timing-info / vui-hrd-info / slices=1 / no-opt-qp-pps / no-opt-ref-list-length-pps / no-multi-pass-opt-rps / scenecut-bias=0.05 / no-opt-cu-delta-qp / no-aq-motion / no-hdr / no-hdr-opt / no-dhdr10-opt / no-idr-recovery-sei / analysis-reuse-level=5 / scale-factor=0 / refine-intra=0 / refine-inter=0 / refine-mv=1 / refine-ctu-distortion=0 / no-limit-sao / ctu-info=0 / no-lowpass-dct / refine-analysis-type=0 / copy-pic=1 / max-ausize-factor=1.0 / no-dynamic-refine / no-single-sei / no-hevc-aq / no-svt / no-field / qp-adaptation-range=1.00
Default                                  : Yes
Forced                                   : No
Audio
ID                                       : 2
Format                                   : AAC LC SBR
Format/Info                              : Advanced Audio Codec Low Complexity with Spectral Band Replication
Commercial name                          : HE-AAC
Format settings                          : Explicit
Codec ID                                 : A_AAC-2
Duration                                 : 1 h 34 min
Bit rate                                 : 448 kb/s
Channel(s)                               : 8 channels
Channel layout                           : C L R Ls Rs Lb Rb LFE
Sampling rate                            : 48.0 kHz
Frame rate                               : 23.438 FPS (2048 SPF)
Compression mode                         : Lossy
Stream size                              : 301 MiB (15%)
Title                                    : MoviePirate - Team Telly
Language                                 : English
Default                                  : No
Forced                                   : No
Text #1
ID                                       : 3
Format                                   : PGS
Muxing mode                              : zlib
Codec ID                                 : S_HDMV/PGS
Codec ID/Info                            : Picture based subtitle format used on BDs/HD-DVDs
Duration                                 : 1 h 26 min
Bit rate                                 : 34.8 kb/s
Count of elements                        : 2686
Stream size                              : 21.4 MiB (1%)
Title                                    : SDH
Language                                 : English
Default                                  : No
Forced                                   : No
Text #2
ID                                       : 4
Format                                   : PGS
Muxing mode                              : zlib
Codec ID                                 : S_HDMV/PGS
Codec ID/Info                            : Picture based subtitle format used on BDs/HD-DVDs
Duration                                 : 1 h 33 min
Bit rate                                 : 82.8 kb/s
Count of elements                        : 3678
Stream size                              : 55.4 MiB (3%)
Title                                    : Bill Sienkiewicz interview
Language                                 : English
Default                                  : No
Forced                                   : No
Menu
00:00:00.000                             : en:Chapter 1
00:02:39.951                             : en:Chapter 2
00:08:07.737                             : en:Chapter 3
00:10:53.861                             : en:Chapter 4
00:14:33.038                             : en:Chapter 5
00:17:23.917                             : en:Chapter 6
00:19:53.066                             : en:Chapter 7
00:23:41.878                             : en:Chapter 8
00:27:54.589                             : en:Chapter 9
00:30:30.078                             : en:Chapter 10
00:33:26.587                             : en:Chapter 11
00:39:36.791                             : en:Chapter 12
00:43:12.965                             : en:Chapter 13
00:47:53.287                             : en:Chapter 14
00:50:35.157                             : en:Chapter 15
00:52:12.254                             : en:Chapter 16
00:55:28.825                             : en:Chapter 17
00:57:13.054                             : en:Chapter 18
01:00:17.113                             : en:Chapter 19
01:02:37.754                             : en:Chapter 20
01:06:36.367                             : en:Chapter 21
01:11:12.101                             : en:Chapter 22
01:13:44.461                             : en:Chapter 23
01:15:07.878                             : en:Chapter 24
01:18:57.107                             : en:Chapter 25
01:21:52.365                             : en:Chapter 26
01:24:32.275                             : en:Chapter 27
01:26:46.201                             : en:Chapter 28










Discussion

Comments 0

Post Your Comment

Files in this torrent

FILENAMESIZE
The New Mutants 2020 1080p 10bit BluRay AAC 7.1 x265 HEVC - MoviePirate - Telly.mkv2 GB

Alternative Torrents for 'Mutants bit BluRay AAC HEVC MoviePirate Telly'.

There are no alternative torrents found.