Mulan 2020 BDRip 720p SeleZen

Torrent Details

Mulan 2020 BDRip 720p<span style=color:#fc9c6d> seleZen</span>
Mulan 2020 BDRip 720p<span style=color:#fc9c6d> seleZen</span>

NAME
Mulan 2020 BDRip 720p seleZen.torrent
CATEGORY
Movies
INFOHASH
39fa23de903fb1ba70ce0199a409239a86b95dfc
SIZE
5.6 GB in 1 file
ADDED
Uploaded on 12-11-2020 by our crawler pet called "Spidey".
SWARM
0 seeders & 0 peers
RATING
No votes yet.

Please login to vote for this torrent.


Description

Информация о фильме

Название: Мулан

Оригинальное название: Mulan

Год выхода: 2020

Жанр: Драма, боевик, фэнтези, боевые искусства, ремейк

Режиссер: Ники Каро

В ролях: Ифэй Лю, Донни Йен, Гун Ли, Джет Ли, Джейсон Скотт Ли, Йосон Ань, Ци Ма, Розалинд Чао, Чжэн Пэйпэй, Сюзанна Тан









О фильме: Изданный императором Китая указ о призыве на службу в Имперской армии одного мужчины из каждой семьи для защиты страны от северных захватчиков вдохновляет Мулан, старшую дочь почетного воина, занять в войсках место своего больного отца. Маскируясь под мужчину, девушка подвергается испытаниям на каждом шагу, проявляя свои внутреннюю силу и истинный потенциал. Мулан ждет эпичное путешествие, которое превратит её в доблестного воина, позволит заслужить уважение благодарного народа и стать гордостью отца.



Страна: США, Канада, Гонконг

Студия: Walt Disney Pictures, Jason T. Reed Productions, Good Fear Content

Продолжительность: 01:55:11

Перевод: Дублированный | iTunes



Качество: BDRip 720p

Видео: MPEG-4 AVC, 1280x536, 5896 Kbit/s, 23.976 fps

Аудио #01: 48 kHz, AC3, 5.1, 384 Kbps | iTunes | RUS |

Аудио #02: 48 kHz, AC3, 5.1, 640 Kbps | Оригинал | ENG |

Субтитры: Русские (Forced, 2 x full), английские







MIGeneral

Unique ID : 125681055929382114161244513202670926876 (0x5E8D4A78CB19A0CBCD2515E9AB3BFC1C)

Complete name : D:Video111Mulan.2020.BDRip.720p.seleZen.mkv

Format : Matroska

Format version : Version 4

File size : 5.57 GiB

Duration : 1 h 55 min

Overall bit rate : 6 922 kb/s

Movie name : Mulan 2020 from seleZen

Encoded date : UTC 2020-11-12 21:27:19

Writing application : mkvmerge v40.0.0 ('Old Town Road + Pony') 64-bit

Writing library : libebml v1.3.9 + libmatroska v1.5.2



Video

ID : 1

Format : AVC

Format/Info : Advanced Video Codec

Format profile : [email protected]

Format settings : CABAC / 12 Ref Frames

Format settings, CABAC : Yes

Format settings, Reference : 12 frames

Codec ID : V_MPEG4/ISO/AVC

Duration : 1 h 55 min

Bit rate : 5 896 kb/s

Width : 1 280 pixels

Height : 536 pixels

Display aspect ratio : 2.40:1

Frame rate mode : Constant

Frame rate : 23.976 (24000/1001) FPS

Color space : YUV

Chroma subsampling : 4:2:0

Bit depth : 8 bits

Scan type : Progressive

Bits/(Pixel*Frame) : 0.358

Stream size : 4.74 GiB (85%)

Title : playHD

Writing library : x264 core 144 r2525 40bb568

Encoding settings : cabac=1 / ref=12 / deblock=1:-3:-3 / analyse=0x3:0x133 / me=umh / subme=10 / psy=1 / psy_rd=1.00:0.00 / mixed_ref=1 / me_range=32 / chroma_me=1 / trellis=2 / 8x8dct=1 / cqm=0 / deadzone=21,11 / fast_pskip=0 / chroma_qp_offset=-2 / threads=12 / lookahead_threads=2 / sliced_threads=0 / nr=0 / decimate=0 / interlaced=0 / bluray_compat=0 / constrained_intra=0 / bframes=8 / b_pyramid=2 / b_adapt=2 / b_bias=0 / direct=3 / weightb=1 / open_gop=0 / weightp=2 / keyint=250 / keyint_min=23 / scenecut=40 / intra_refresh=0 / rc=crf / mbtree=0 / crf=14.6 / qcomp=0.60 / qpmin=0 / qpmax=69 / qpstep=4 / ip_ratio=1.30 / pb_ratio=1.20 / aq=3:0.85

Language : English

Default : Yes

Forced : No



Audio #1

ID : 2

Format : AC-3

Format/Info : Audio Coding 3

Commercial name : Dolby Digital

Codec ID : A_AC3

Duration : 1 h 55 min

Bit rate mode : Constant

Bit rate : 384 kb/s

Channel(s) : 6 channels

Channel layout : L R C LFE Ls Rs

Sampling rate : 48.0 kHz

Frame rate : 31.250 FPS (1536 SPF)

Compression mode : Lossy

Stream size : 316 MiB (6%)

Title : iTunes

Language : Russian

Service kind : Complete Main

Default : Yes

Forced : Yes



Audio #2

ID : 3

Format : AC-3

Format/Info : Audio Coding 3

Commercial name : Dolby Digital

Codec ID : A_AC3

Duration : 1 h 55 min

Bit rate mode : Constant

Bit rate : 640 kb/s

Channel(s) : 6 channels

Channel layout : L R C LFE Ls Rs

Sampling rate : 48.0 kHz

Frame rate : 31.250 FPS (1536 SPF)

Compression mode : Lossy

Stream size : 527 MiB (9%)

Title : Original

Language : English

Service kind : Complete Main

Default : No

Forced : No



Text #1

ID : 4

Format : UTF-8

Codec ID : S_TEXT/UTF8

Codec ID/Info : UTF-8 Plain Text

Duration : 3 min 8 s

Bit rate : 5 b/s

Count of elements : 2

Stream size : 133 Bytes (0%)

Title : Forced [iTunes]

Language : Russian

Default : Yes

Forced : Yes



Text #2

ID : 5

Format : UTF-8

Codec ID : S_TEXT/UTF8

Codec ID/Info : UTF-8 Plain Text

Duration : 1 h 54 min

Bit rate : 42 b/s

Count of elements : 785

Stream size : 35.9 KiB (0%)

Title : Full [iTunes]

Language : Russian

Default : No

Forced : No



Text #3

ID : 6

Format : UTF-8

Codec ID : S_TEXT/UTF8

Codec ID/Info : UTF-8 Plain Text

Duration : 1 h 44 min

Bit rate : 51 b/s

Count of elements : 850

Stream size : 39.0 KiB (0%)

Title : Full [Focs]

Language : Russian

Default : No

Forced : No



Text #4

ID : 7

Format : UTF-8

Codec ID : S_TEXT/UTF8

Codec ID/Info : UTF-8 Plain Text

Duration : 1 h 50 min

Bit rate : 30 b/s

Count of elements : 923

Stream size : 24.6 KiB (0%)

Title : Full

Language : English

Default : No

Forced : No



Text #5

ID : 8

Format : UTF-8

Codec ID : S_TEXT/UTF8

Codec ID/Info : UTF-8 Plain Text

Duration : 1 h 50 min

Bit rate : 36 b/s

Count of elements : 1150

Stream size : 29.6 KiB (0%)

Title : SDH

Language : English

Default : No

Forced : No



Menu

00:00:00.000 : en:Chapter 01

00:04:44.117 : en:Chapter 02

00:06:26.469 : en:Chapter 03

00:09:29.152 : en:Chapter 04

00:13:27.223 : en:Chapter 05

00:20:51.584 : en:Chapter 06

00:26:33.675 : en:Chapter 07

00:29:03.992 : en:Chapter 08

00:36:48.832 : en:Chapter 09

00:41:41.708 : en:Chapter 10

00:50:45.668 : en:Chapter 11

00:57:19.061 : en:Chapter 12

01:01:13.336 : en:Chapter 13

01:11:22.820 : en:Chapter 14

01:16:34.924 : en:Chapter 15

01:22:11.552 : en:Chapter 16

01:29:59.060 : en:Chapter 17

01:34:59.819 : en:Chapter 18

01:38:52.385 : en:Chapter 19

01:44:40.399 : en:Chapter 20



Релиз: Присоединяйся к:



Discussion

Comments 0

Post Your Comment

Files in this torrent

FILENAMESIZE
Mulan.2020.BDRip.720p.seleZen.mkv5.6 GB

Alternative Torrents for 'Mulan'.

TORRENT NAMEADDEDSIZESEEDSPEERSHEALTH
3/4/20131.3 GB51542
3/4/2013700 MB41411
1/4/20214 GB436
12/28/20202.6 GB244
12/28/20204.4 GB189
12/23/20203.4 GB84
Yesterday1.2 GB36
Yesterday1.2 GB14
12/11/20201 GB00
12/11/20202.6 GB00
12/11/2020441 MB00
12/11/2020268 MB00
12/11/20207.9 GB00
12/10/2020908 MB00
12/9/20201.3 GB00