Sector 4 Extraction 2014 DVDRip XviD-iFT

Torrent Details


Sector 4 Extraction 2014 DVDRip XviD-iFT

NAME
Sector 4 Extraction 2014 DVDRip XviD-iFT.torrent
CATEGORY
Movies
INFOHASH
bf7e04647e88ad04d5ed1caddb6c41f21cd38af9
SIZE
732 MB in 2 files
ADDED
Uploaded on 21-07-2014 by our crawler pet called "Spidey".
SWARM
0 seeders & 0 peers
RATING
No votes yet.

Please login to vote for this torrent.


Description

http://www.imdb.com/title/tt3099370/


While on a top-secret mission in Sector 4, the most dangerous area of the Middle East, a team of Private Military Contractors known as Black Knight are ambushed and taken hostage. Team leader Nash Olsen (Olivier Gruner) escapes captivity and is rescued by the U.S. government, only to discover by Black Knight Commander (Eric Roberts) that a rescue mission is impossible. Forced to choose between his family or upholding the Black Knight motto "No One Left Behind," Nash begins a one-man rescue attempt to save his team, discovering there may be more to this mission than he thinks.

Director: Olivier Gruner
Writers: Olivier Gruner, Richard Pierce
Stars: Salman Bokhari, Steven Dell, Jillian Alysse
Genres: Action | War
Country: USA
Language: English



Format : AVI
Format/Info : Audio Video Interleave
File size : 732 MiB
Duration : 1h 29mn
Overall bit rate : 1 141 Kbps

Video
ID : 0
Format : MPEG-4 Visual
Format profile : [email protected]
Format settings, BVOP : No
Format settings, QPel : No
Format settings, GMC : No warppoints
Format settings, Matrix : Default (H.263)
Codec ID : XVID
Codec ID/Hint : XviD
Duration : 1h 29mn
Bit rate : 1 000 Kbps
Width : 640 pixels
Height : 352 pixels
Display aspect ratio : 16:9
Frame rate : 23.976 fps
Color space : YUV
Chroma subsampling : 4:2:0
Bit depth : 8 bits
Scan type : Progressive
Compression mode : Lossy
Bits/(Pixel*Frame) : 0.185
Stream size : 642 MiB (88%)
Writing library : XviD 1.1.2 (UTC 2006-11-01)

Audio
ID : 1
Format : MPEG Audio
Format version : Version 1
Format profile : Layer 3
Mode : Joint stereo
Codec ID : 55
Codec ID/Hint : MP3
Duration : 1h 29mn
Source duration : 1h 29mn
Bit rate mode : Constant
Bit rate : 128 Kbps
Channel(s) : 2 channels
Sampling rate : 48.0 KHz
Compression mode : Lossy
Stream size : 82.1 MiB (11%)
Alignment : Split accross interleaves
Interleave, duration : 24 ms (0.58 video frame)
Writing library : LAME3.98








Discussion

Comments 0

Post Your Comment

Files in this torrent

FILENAMESIZE
Sector.4.Extraction.2014.DVDRip.XviD-iFT.avi732 MB
Sector.4.Extraction.2014.DVDRip.XviD-iFT.nfo1.1 KB

Alternative Torrents for 'Sector Extraction DVDRip iFT'.

TORRENT NAMEADDEDSIZESEEDSPEERSHEALTH
7/21/2014732 MB00
7/21/2014732 MB00