Il Re Di Staten Island-The King Of Staten Island (2020) ITA-ENG-FRE Ac3 5.1 BDRip 1080p H264 [ArMor]

Torrent Details


Il re di Staten Island-The king of Staten Island (2020) ITA-ENG-FRE Ac3 5.1 BDRip 1080p H264 <span style=color:#fc9c6d>[ArMor]</span>

NAME
Il re di Staten Island-The king of Staten Island (2020) ITA-ENG-FRE Ac3 5.1 BDRip 1080p H264 [ArMor].torrent
CATEGORY
Movies
INFOHASH
9634bf4d2b29d491e5c2acfa8bc095924d91def4
SIZE
6 GB in 11 files
ADDED
Uploaded on 16-11-2020 by our crawler pet called "Spidey".
SWARM
0 seeders & 0 peers
RATING
No votes yet.

Please login to vote for this torrent.


Description











Regista: Judd Apatow

Genere: Commedia, Drammatico

Anno: 2020

Paese: USA

Durata: 136 min

Data di uscita: 30 luglio 2020

Distribuzione: Universal Pictures







Pete Davidson, Marisa Tomei, Steve Buscemi, Pamela Adlon, Bel Powley, Maude Apatow, Bill Burr, Domenick Lombardozzi, Moises Arias, Machine Gun Kelly, Kevin Corrigan, Jimmy Tatro







Il Re di Staten Island, film diretto da Judd Apatow, è la storia di Scott (Pete Davidson), un ragazzo che ha perso il padre quando aveva solo 7 anni durante l'attentato dell'11 settembre. La perdita del genitore ha causato al giovane un vero shock e ora che ha più di vent'anni si comporta ancora come un adolescente. Trascorre le sue giornate in giro insieme ai suoi amici, a fumare erba e a fare il cascamorto con la sua amica d'infanzia (Bel Powley); al contrario di sua sorella minore (Maude Apatow), che sta per iniziare il college.







Scott has been a case of arrested development since his firefighter dad died. He spends his days smoking weed and dreaming of being a tattoo artist until events force him to grapple with his grief and take his first steps forward in life.

























General

Unique ID                                : 239275236195798159997134280392123825931 (0xB402BBF6C21AB38B2FD5A19FE4AB3F0B)

Complete name                            : Il re di Staten Island-The king of Staten Island (2020) ITA-ENG-FRE Ac3 5.1 BDRip 1080p H264 [ArMor].mkv

Format                                   : Matroska

Format version                           : Version 4

File size                                : 5.58 GiB

Duration                                 : 2 h 17 min

Overall bit rate                         : 5 823 kb/s

Encoded date                             : UTC 2020-11-15 00:04:25

Writing application                      : HandBrake 1.3.3 2020061300

Writing library                          : Lavf58.29.100

ErrorDetectionType                       : Per level 1



Video

ID                                       : 1

Format                                   : AVC

Format/Info                              : Advanced Video Codec

Format profile                           : [email protected]

Format settings                          : CABAC / 4 Ref Frames

Format settings, CABAC                   : Yes

Format settings, Reference frames        : 4 frames

Codec ID                                 : V_MPEG4/ISO/AVC

Duration                                 : 2 h 17 min

Bit rate                                 : 4 500 kb/s

Width                                    : 1 920 pixels

Height                                   : 804 pixels

Display aspect ratio                     : 2.40:1

Frame rate mode                          : Constant

Frame rate                               : 23.976 (24000/1001) FPS

Color space                              : YUV

Chroma subsampling                       : 4:2:0

Bit depth                                : 8 bits

Scan type                                : Progressive

Bits/(Pixel*Frame)                       : 0.122

Stream size                              : 4.18 GiB (75%)

Writing library                          : x264 core 157 r2935 545de2f

Encoding settings                        : cabac=1 / ref=2 / deblock=1:0:0 / analyse=0x1:0x111 / me=hex / subme=6 / psy=1 / psy_rd=1.00:0.00 / mixed_ref=1 / me_range=16 / chroma_me=1 / trellis=1 / 8x8dct=0 / cqm=0 / deadzone=21,11 / fast_pskip=1 / chroma_qp_offset=-2 / threads=18 / lookahead_threads=3 / sliced_threads=0 / nr=0 / decimate=1 / interlaced=0 / bluray_compat=0 / constrained_intra=0 / bframes=3 / b_pyramid=2 / b_adapt=1 / b_bias=0 / direct=1 / weightb=1 / open_gop=0 / weightp=1 / keyint=240 / keyint_min=24 / scenecut=40 / intra_refresh=0 / rc_lookahead=30 / rc=abr / mbtree=1 / bitrate=4500 / ratetol=1.0 / qcomp=0.60 / qpmin=0 / qpmax=69 / qpstep=4 / vbv_maxrate=50000 / vbv_bufsize=62500 / nal_hrd=none / filler=0 / ip_ratio=1.40 / aq=1:1.00

Default                                  : Yes

Forced                                   : No

Color range                              : Limited

Color primaries                          : BT.709

Transfer characteristics                 : BT.709

Matrix coefficients                      : BT.709



Audio #1

ID                                       : 2

Format                                   : AC-3

Format/Info                              : Audio Coding 3

Commercial name                          : Dolby Digital

Codec ID                                 : A_AC3

Duration                                 : 2 h 17 min

Bit rate mode                            : Constant

Bit rate                                 : 448 kb/s

Channel(s)                               : 6 channels

Channel layout                           : L R C LFE Ls Rs

Sampling rate                            : 48.0 kHz

Frame rate                               : 31.250 FPS (1536 SPF)

Compression mode                         : Lossy

Stream size                              : 440 MiB (8%)

Title                                    : Surround

Language                                 : Italian

Service kind                             : Complete Main

Default                                  : Yes

Forced                                   : No



Audio #2

ID                                       : 3

Format                                   : AC-3

Format/Info                              : Audio Coding 3

Commercial name                          : Dolby Digital

Codec ID                                 : A_AC3

Duration                                 : 2 h 17 min

Bit rate mode                            : Constant

Bit rate                                 : 448 kb/s

Channel(s)                               : 6 channels

Channel layout                           : L R C LFE Ls Rs

Sampling rate                            : 48.0 kHz

Frame rate                               : 31.250 FPS (1536 SPF)

Compression mode                         : Lossy

Stream size                              : 440 MiB (8%)

Title                                    : Surround

Language                                 : English

Service kind                             : Complete Main

Default                                  : No

Forced                                   : No



Audio #3

ID                                       : 4

Format                                   : AC-3

Format/Info                              : Audio Coding 3

Commercial name                          : Dolby Digital

Codec ID                                 : A_AC3

Duration                                 : 2 h 17 min

Bit rate mode                            : Constant

Bit rate                                 : 448 kb/s

Channel(s)                               : 6 channels

Channel layout                           : L R C LFE Ls Rs

Sampling rate                            : 48.0 kHz

Frame rate                               : 31.250 FPS (1536 SPF)

Compression mode                         : Lossy

Stream size                              : 440 MiB (8%)

Title                                    : Surround

Language                                 : French

Service kind                             : Complete Main

Default                                  : No

Forced                                   : No



Menu

00:00:00.000                             : :Chapter 1

00:07:59.771                             : :Chapter 2

00:15:21.796                             : :Chapter 3

00:21:31.665                             : :Chapter 4

00:30:29.953                             : :Chapter 5

00:35:49.773                             : :Chapter 6

00:43:32.276                             : :Chapter 7

00:51:07.439                             : :Chapter 8

00:58:17.452                             : :Chapter 9

01:06:46.669                             : :Chapter 10

01:11:39.921                             : :Chapter 11

01:16:35.925                             : :Chapter 12

01:21:36.934                             : :Chapter 13

01:29:12.097                             : :Chapter 14

01:34:21.865                             : :Chapter 15

01:41:33.296                             : :Chapter 16

01:46:17.246                             : :Chapter 17

01:56:30.233                             : :Chapter 18

02:04:11.027                             : :Chapter 19

02:11:48.859                             : :Chapter 20









Discussion

Comments 0

Post Your Comment

Files in this torrent

FILENAMESIZE
Il re di Staten Island-The king of Staten Island (2020) ITA-ENG-FRE Ac3 5.1 BDRip 1080p H264 [ArMor].mkv5.6 GB
Il.Re.Di.Staten.Island.2020.Bd-sotto(1)_track10_ita.sup99.3 KB
Il.Re.Di.Staten.Island.2020.Bd-sotto(1)_track2_eng.sup69.6 MB
Il.Re.Di.Staten.Island.2020.Bd-sotto(1)_track3_fre.sup50 MB
Il.Re.Di.Staten.Island.2020.Bd-sotto(1)_track4_ita.sup55.2 MB
Il.Re.Di.Staten.Island.2020.Bd-sotto(1)_track5_dut.sup46.3 MB
Il.Re.Di.Staten.Island.2020.Bd-sotto(1)_track6_eng.sup76 MB
Il.Re.Di.Staten.Island.2020.Bd-sotto(1)_track7_fre.sup63.8 MB
Il.Re.Di.Staten.Island.2020.Bd-sotto(1)_track8_ita.sup64.2 MB
Il.Re.Di.Staten.Island.2020.Bd-sotto(1)_track9_fre.sup62.9 KB
sru542u647jyut.jpg128 KB

Alternative Torrents for 'Il re di Staten Island king of Staten Island ENGFRE'.

There are no alternative torrents found.