Middle Class Melodies (2020) 1080p Telugu (DD 5.1) HDRip X264 AC3 ESub By Full4Movies

Torrent Details

Middle Class Melodies (2020) 1080p Telugu (DD 5.1) HDRip x264 AC3  ESub By Full4Movies

NAME
Middle Class Melodies (2020) 1080p Telugu (DD 5.1) HDRip x264 AC3 ESub By Full4Movies.torrent
CATEGORY
Movies
INFOHASH
d92f8f53e4f5da82e7d669be66d65397b55bd2ce
SIZE
2.5 GB in 1 file
ADDED
Uploaded on 20-11-2020 by our crawler pet called "Spidey".
SWARM
3 seeders & 2 peers
RATING
No votes yet.

Please login to vote for this torrent.


Description





Visit Us = https://full4movies.xyz/



General

Complete name                  : Middle Class Melodies (2020) 1080p Telugu (DD 5.1) HDRip x264 AC3  ESub By Full4Movies.mkv

Format                         : Matroska

Format version                 : Version 4

File size                      : 2.48 GiB

Duration                       : 2 h 15 min

Overall bit rate               : 2 613 kb/s

Encoded date                   : UTC 2020-11-20 04:22:32

Writing application            : mkvmerge v8.0.0 ('Til The Day That I Die') 32bit

Writing library                : libebml v1.3.1 + libmatroska v1.4.2



Video

ID                             : 1

Format                         : AVC

Format/Info                    : Advanced Video Codec

Format profile                 : [email protected]

Format settings                : CABAC / 4 Ref Frames

Format settings, CABAC         : Yes

Format settings, Reference fra : 4 frames

Codec ID                       : V_MPEG4/ISO/AVC

Duration                       : 2 h 15 min

Bit rate                       : 2 419 kb/s

Width                          : 1 920 pixels

Height                         : 800 pixels

Display aspect ratio           : 2.40:1

Frame rate mode                : Constant

Frame rate                     : 24.000 FPS

Color space                    : YUV

Chroma subsampling             : 4:2:0

Bit depth                      : 8 bits

Scan type                      : Progressive

Bits/(Pixel*Frame)             : 0.066

Stream size                    : 2.29 GiB (93%)

Language                       : Telugu

Default                        : Yes

Forced                         : No

Color range                    : Limited

Color primaries                : BT.709

Transfer characteristics       : BT.709

Matrix coefficients            : BT.709



Audio

ID                             : 2

Format                         : E-AC-3

Format/Info                    : Enhanced AC-3

Commercial name                : Dolby Digital Plus

Codec ID                       : A_EAC3

Duration                       : 2 h 15 min

Bit rate mode                  : Constant

Bit rate                       : 192 kb/s

Channel(s)                     : 6 channels

Channel layout                 : L R C LFE Ls Rs

Sampling rate                  : 48.0 kHz

Frame rate                     : 31.250 FPS (1536 SPF)

Compression mode               : Lossy

Stream size                    : 186 MiB (7%)

Language                       : Telugu

Service kind                   : Complete Main

Default                        : Yes

Forced                         : No



Text

ID                             : 3

Format                         : UTF-8

Codec ID                       : S_TEXT/UTF8

Codec ID/Info                  : UTF-8 Plain Text

Duration                       : 2 h 8 min

Bit rate                       : 81 b/s

Count of elements              : 2079

Stream size                    : 76.4 KiB (0%)

Language                       : English

Default                        : Yes

Forced                         : No



Screen Shoots

Discussion

Comments 0

Post Your Comment

Files in this torrent

FILENAMESIZE
Middle Class Melodies (2020) 1080p Telugu (DD 5.1) HDRip x264 AC3 ESub By Full4Movies.mkv2.5 GB

Alternative Torrents for 'Middle Class Melodies Telugu DD . ESub By FullMovies'.

There are no alternative torrents found.