Bicchoo Ka Khel (2020) 720p [Season 1 - EP 1 TO 9] 7 Hindi HDRip X264 AAC ESub By Full4Movies

Torrent Details

Bicchoo Ka Khel (2020) 720p [Season 1 - EP 1 TO 9] 7 Hindi HDRip x264 AAC ESub By Full4Movies

NAME
Bicchoo Ka Khel (2020) 720p [Season 1 - EP 1 TO 9] 7 Hindi HDRip x264 AAC ESub By Full4Movies.torrent
CATEGORY
Television
INFOHASH
e0b2a40f6266e12d0915ba86285e87a3200ef234
SIZE
1.4 GB in 1 file
ADDED
Uploaded on 20-11-2020 by our crawler pet called "Spidey".
SWARM
16 seeders & 0 peers
RATING
No votes yet.

Please login to vote for this torrent.


Description





Visit Us = https://full4movies.xyz/



General

Complete name                  : Bicchoo Ka Khel (2020) 720p [Season 1 - EP 1 TO 9] Hindi HDRip x264 AAC ESub By Full4Movies.mkv

Format                         : Matroska

Format version                 : Version 4

File size                      : 1.41 GiB

Duration                       : 3 h 12 min

Overall bit rate mode          : Variable

Overall bit rate               : 1 046 kb/s

Encoded date                   : UTC 2020-11-19 04:10:41

Writing application            : mkvmerge v8.0.0 ('Til The Day That I Die') 32bit

Writing library                : libebml v1.3.1 + libmatroska v1.4.2



Video

ID                             : 1

Format                         : AVC

Format/Info                    : Advanced Video Codec

Format profile                 : [email protected]

Format settings                : CABAC / 4 Ref Frames

Format settings, CABAC         : Yes

Format settings, Reference fra : 4 frames

Codec ID                       : V_MPEG4/ISO/AVC

Duration                       : 3 h 12 min

Bit rate mode                  : Variable

Bit rate                       : 982 kb/s

Maximum bit rate               : 1 350 kb/s

Width                          : 1 280 pixels

Height                         : 720 pixels

Display aspect ratio           : 16:9

Frame rate mode                : Constant

Frame rate                     : 25.000 FPS

Color space                    : YUV

Chroma subsampling             : 4:2:0

Bit depth                      : 8 bits

Scan type                      : Progressive

Bits/(Pixel*Frame)             : 0.043

Stream size                    : 1.32 GiB (94%)

Default                        : Yes

Forced                         : No

Color range                    : Limited

Color primaries                : BT.709

Transfer characteristics       : BT.709

Matrix coefficients            : BT.709



Audio

ID                             : 2

Format                         : AAC LC

Format/Info                    : Advanced Audio Codec Low Complexity

Codec ID                       : A_AAC-2

Duration                       : 3 h 12 min

Bit rate                       : 61.4 kb/s

Channel(s)                     : 2 channels

Channel layout                 : L R

Sampling rate                  : 48.0 kHz

Frame rate                     : 46.875 FPS (1024 SPF)

Compression mode               : Lossy

Delay relative to video        : -33 ms

Stream size                    : 84.6 MiB (6%)

Language                       : Hindi

Default                        : Yes

Forced                         : No



Text

ID                             : 3

Format                         : S_TEXT/WEBVTT

Codec ID                       : S_TEXT/WEBVTT

Duration                       : 3 h 10 min

Bit rate                       : 65 b/s

Count of elements              : 3153

Stream size                    : 91.3 KiB (0%)

Language                       : English

Default                        : Yes

Forced                         : No



Screen Shoots

Discussion

Comments 0

Post Your Comment

Files in this torrent

FILENAMESIZE
Bicchoo Ka Khel (2020) 720p [Season 1 - EP 1 TO 9] 7 Hindi HDRip x264 AAC ESub By Full4Movies.mkv1.4 GB

Alternative Torrents for 'Bicchoo Ka Khel Season EP TO Hindi AAC ESub By FullMovies'.

There are no alternative torrents found.