Tom And Jerry - The Movie (1992) 720p [Hindi Dubbed - English] HDRip X264 AC3 ESub By Full4Movies

Torrent Details

Tom and Jerry - The Movie (1992) 720p [Hindi Dubbed - English] HDRip x264 AC3 ESub By Full4Movies

NAME
Tom and Jerry - The Movie (1992) 720p [Hindi Dubbed - English] HDRip x264 AC3 ESub By Full4Movies.torrent
CATEGORY
Movies
INFOHASH
a27c448b85dbfb9e479e3aec254ddd4944bf90bf
SIZE
785 MB in 1 file
ADDED
Uploaded on 20-11-2020 by our crawler pet called "Spidey".
SWARM
1 seeders & 2 peers
RATING
No votes yet.

Please login to vote for this torrent.


Description





Visit Us = https://full4movies.xyz/



General

Complete name                  : Tom and Jerry - The Movie (1992) 720p [Hindi Dubbed - English] HDRip x264 AC3 ESub By Full4Movies.mkv

Format                         : Matroska

Format version                 : Version 4

File size                      : 785 MiB

Duration                       : 1 h 23 min

Overall bit rate               : 1 314 kb/s

Encoded date                   : UTC 2020-11-20 08:45:52

Writing application            : mkvmerge v8.0.0 ('Til The Day That I Die') 32bit

Writing library                : libebml v1.3.1 + libmatroska v1.4.2



Video

ID                             : 1

Format                         : AVC

Format/Info                    : Advanced Video Codec

Format profile                 : [email protected]

Format settings                : CABAC / 5 Ref Frames

Format settings, CABAC         : Yes

Format settings, Reference fra : 5 frames

Codec ID                       : V_MPEG4/ISO/AVC

Duration                       : 1 h 23 min

Bit rate                       : 992 kb/s

Width                          : 1 280 pixels

Height                         : 692 pixels

Display aspect ratio           : 1.85:1

Frame rate mode                : Constant

Frame rate                     : 23.976 (24000/1001) FPS

Color space                    : YUV

Chroma subsampling             : 4:2:0

Bit depth                      : 8 bits

Scan type                      : Progressive

Bits/(Pixel*Frame)             : 0.047

Stream size                    : 592 MiB (75%)

Writing library                : x264 core 155 r2901 7d0ff22

Language                       : English

Default                        : Yes

Forced                         : Yes



Audio #1

ID                             : 2

Format                         : AC-3

Format/Info                    : Audio Coding 3

Commercial name                : Dolby Digital

Codec ID                       : A_AC3

Duration                       : 1 h 23 min

Bit rate mode                  : Constant

Bit rate                       : 224 kb/s

Channel(s)                     : 2 channels

Channel layout                 : L R

Sampling rate                  : 44.1 kHz

Frame rate                     : 28.711 FPS (1536 SPF)

Compression mode               : Lossy

Stream size                    : 134 MiB (17%)

Language                       : Hindi

Service kind                   : Complete Main

Default                        : Yes

Forced                         : Yes



Audio #2

ID                             : 3

Format                         : AAC LC

Format/Info                    : Advanced Audio Codec Low Complexity

Codec ID                       : A_AAC-2

Duration                       : 1 h 23 min

Bit rate                       : 96.0 kb/s

Channel(s)                     : 2 channels

Channel layout                 : L R

Sampling rate                  : 48.0 kHz

Frame rate                     : 46.875 FPS (1024 SPF)

Compression mode               : Lossy

Delay relative to video        : 9 ms

Stream size                    : 57.2 MiB (7%)

Language                       : English

Default                        : No

Forced                         : No



Text

ID                             : 4

Format                         : UTF-8

Codec ID                       : S_TEXT/UTF8

Codec ID/Info                  : UTF-8 Plain Text

Duration                       : 1 h 23 min

Bit rate                       : 55 b/s

Count of elements              : 1240

Stream size                    : 33.9 KiB (0%)

Language                       : English

Default                        : Yes

Forced                         : Yes



Screen Shoots

Discussion

Comments 0

Post Your Comment

Files in this torrent

FILENAMESIZE
Tom and Jerry - The Movie (1992) 720p [Hindi Dubbed - English] HDRip x264 AC3 ESub By Full4Movies.mkv785 MB

Alternative Torrents for 'Tom and Jerry Movie Hindi Dubbed English ESub By FullMovies'.

There are no alternative torrents found.