Star Wars The Clone Wars The TV Film Cuts Batch II X265 HDR 2160p-NumeralJ

Torrent Details


Star Wars The Clone Wars The TV Film Cuts Batch II x265 HDR 2160p-NumeralJ

NAME
Star Wars The Clone Wars The TV Film Cuts Batch II x265 HDR 2160p-NumeralJ.torrent
CATEGORY
Movies
INFOHASH
21e1a6e43fb3f328a5359e76be71e9b3266f9936
SIZE
69 GB in 8 files
ADDED
Uploaded on 20-11-2020 by our crawler pet called "Spidey".
SWARM
4 seeders & 0 peers
RATING
No votes yet.

Please login to vote for this torrent.


Description

Star.Wars.The.Clone.Wars.The.TV.Film.Cuts.Batch.II.x265.HDR.2160p-NumeralJ

Upload provided by The Galactic Republic
Edit compiled by NumeralJoker
Join us @ https://discord.gg/nQxP8rQ and start your journey to find the Trove... good luck

Description:
The 7 New Feature Length Cuts will cover...

The Battle of Ryloth https://youtu.be/BgjK3H2g4Fg
The Second Battle of Geonosis https://youtu.be/o1OuYRZ3UxA
The Menace of Cad Bane (6 Episodes from Seasons 1, 2 and 3) https://youtu.be/KkfX79rdkwg
The Citadel Arc https://youtu.be/rlqQjcm73lU
The Rako Hardeen Arc https://youtu.be/z0lIQuC6MtE
The Order 66 Arc https://youtu.be/S-qJKV_4kaI
The Banking Clan Arc https://youtu.be/bL_TUyFz7Ig

Full Image URLs:
https://orangepix.is/image/ptarN
https://orangepix.is/image/ptckx
https://orangepix.is/image/ptgjv
https://orangepix.is/image/ptxlc
https://orangepix.is/image/ptY1G
https://orangepix.is/image/ptV0r
https://orangepix.is/image/ptufH
https://orangepix.is/image/pt0YU
https://orangepix.is/image/ptD9k
https://orangepix.is/image/pt7rJ
https://orangepix.is/image/pt5Eh
https://orangepix.is/image/pthj5
https://orangepix.is/image/ptBzp
https://orangepix.is/image/pt8R4

Medium Size Thumbnails:















MEDIA INFO:
Format : Matroska
Format version : Version 4
Overall bit rate : 15.3 Mb/s
Encoded date : UTC 2020-11-15 23:28:03
Writing application : mkvmerge v12.0.0 ('Trust / Lust') 64bit
Writing library : libebml v1.3.4 + libmatroska v1.4.5

Video
ID : 2
Format : HEVC
Format/Info : High Efficiency Video Coding
Format profile : Main [email protected]@High
HDR format : SMPTE ST 2086, HDR10 compatible
Codec ID : V_MPEGH/ISO/HEVC
Duration : 1 h 52 min
Bit rate : 15.0 Mb/s
Width : 3 840 pixels
Height : 1 634 pixels
Display aspect ratio : 2.35:1
Frame rate mode : Constant
Frame rate : 23.976 (24000/1001) FPS
Color space : YUV
Chroma subsampling : 4:2:0
Bit depth : 10 bits
Bits/(Pixel*Frame) : 0.100
Stream size : 11.8 GiB (98%)
Language : English
Default : Yes
Forced : No
Color range : Full
Color primaries : BT.2020
Transfer characteristics : PQ
Matrix coefficients : BT.2020 non-constant
Mastering display color primaries : Display P3
Mastering display luminance : min: 0.0050 cd/m2, max: 1000 cd/m2
Maximum Content Light Level : 1000 cd/m2
Maximum Frame-Average Light Level : 200 cd/m2

Audio
ID : 1
Format : AAC LC
Format/Info : Advanced Audio Codec Low Complexity
Codec ID : A_AAC-2
Duration : 1 h 52 min
Bit rate : 317 kb/s
Channel(s) : 6 channels
Channel layout : C L R Ls Rs LFE
Sampling rate : 48.0 kHz
Frame rate : 46.875 FPS (1024 SPF)
Compression mode : Lossy
Stream size : 255 MiB (2%)
Title : English 5.1 Surround
Language : English
Default : Yes
Forced : No

Text
ID : 3
Format : ASS
Codec ID : S_TEXT/ASS
Codec ID/Info : Advanced Sub Station Alpha
Duration : 1 h 51 min
Bit rate : 123 b/s
Count of elements : 1407
Compression mode : Lossless
Stream size : 100 KiB (0%)
Title : English Captions
Language : English
Default : Yes
Forced : No

Discussion

Comments 0

Post Your Comment

Files in this torrent

FILENAMESIZE
Clone Wars Film Cuts Viewing Order.txt1.7 KB
Star Wars The Clone Wars - 0.7 The Battle of Ryloth Film Cut 2160P.mkv12 GB
Star Wars The Clone Wars - 0.8 Second Battle of Geonosis Film Cut 2160P.mkv11.5 GB
Star Wars The Clone Wars - 1.1 The Menace of Cad Bane Film Cut 2160P.mkv13.6 GB
Star Wars The Clone Wars - 3.1 The Citadel Film Cut 2160P.mkv6.8 GB
Star Wars The Clone Wars - 4.2 The Rako Hardeen Film Cut 2160P.mkv9.1 GB
Star Wars The Clone Wars - 6.1 The Order 66 Arc Film Cut 2160P.mkv9.1 GB
Star Wars The Clone Wars - 6.2 The Banking Clan Film Cut 2160P.mkv6.8 GB

Alternative Torrents for 'Star Wars Clone Wars TV Film Cuts Batch II HDR pNumeralJ'.

There are no alternative torrents found.