Star Wars The Clone Wars The TV Film Cuts Batch II X265 1080p-NumeralJ

Torrent Details


Star Wars The Clone Wars The TV Film Cuts Batch II x265 1080p-NumeralJ

NAME
Star Wars The Clone Wars The TV Film Cuts Batch II x265 1080p-NumeralJ.torrent
CATEGORY
Movies
INFOHASH
08fe55702c8678d38a7ebcd2a1637613cd34e59c
SIZE
33.2 GB in 8 files
ADDED
Uploaded on 20-11-2020 by our crawler pet called "Spidey".
SWARM
2 seeders & 0 peers
RATING
No votes yet.

Please login to vote for this torrent.


Description

Star.Wars.The.Clone.Wars.The.TV.Film.Cuts.Batch.II.x265.1080p-NumeralJ
Trailer: Star Wars: The Clone Wars - Cinematic Cuts Batch II Teaser [4K HDR]

Upload provided by The Galactic Republic
Edit compiled by NumeralJoker
Join us @ https://discord.gg/nQxP8rQ and start your journey to find the Trove... good luck

Description:
The 7 New Feature Length Cuts will cover...

The Battle of Ryloth https://youtu.be/BgjK3H2g4Fg
The Second Battle of Geonosis https://youtu.be/o1OuYRZ3UxA
The Menace of Cad Bane (6 Episodes from Seasons 1, 2 and 3) https://youtu.be/KkfX79rdkwg
The Citadel Arc https://youtu.be/rlqQjcm73lU
The Rako Hardeen Arc https://youtu.be/z0lIQuC6MtE
The Order 66 Arc https://youtu.be/S-qJKV_4kaI
The Banking Clan Arc https://youtu.be/bL_TUyFz7Ig

Full Image URLs:
https://orangepix.is/image/ptH0e
https://orangepix.is/image/ptys9https://orangepix.is/image/ptE9Z
https://orangepix.is/image/ptGY3
https://orangepix.is/image/ptiry
https://orangepix.is/image/ptKGm
https://orangepix.is/image/pvTxM
https://orangepix.is/image/pvNz6
https://orangepix.is/image/pvf8O
https://orangepix.is/image/pvFR8
https://orangepix.is/image/pvMIS
https://orangepix.is/image/pvP5R
https://orangepix.is/image/pv1s7
https://orangepix.is/image/pvRCl

Medium Size Thumbnails:















MEDIA INFO:
Format : Matroska
Format version : Version 4
Overall bit rate : 7 626 kb/s
Encoded date : UTC 2020-11-15 23:35:18
Writing application : mkvmerge v12.0.0 ('Trust / Lust') 64bit
Writing library : libebml v1.3.4 + libmatroska v1.4.5

Video
ID : 3
Format : HEVC
Format/Info : High Efficiency Video Coding
Format profile : [email protected]@High
Codec ID : V_MPEGH/ISO/HEVC
Duration : 1 h 52 min
Bit rate : 6 988 kb/s
Width : 1 920 pixels
Height : 816 pixels
Display aspect ratio : 2.35:1
Frame rate mode : Constant
Frame rate : 23.976 (24000/1001) FPS
Color space : YUV
Chroma subsampling : 4:2:0
Bit depth : 8 bits
Bits/(Pixel*Frame) : 0.186
Stream size : 5.49 GiB (92%)
Language : English
Default : Yes
Forced : No
Color range : Limited
Color primaries : BT.709
Transfer characteristics : BT.709
Matrix coefficients : BT.709

Audio #1
ID : 1
Format : AAC LC
Format/Info : Advanced Audio Codec Low Complexity
Codec ID : A_AAC-2
Duration : 1 h 52 min
Bit rate : 317 kb/s
Channel(s) : 6 channels
Channel layout : C L R Ls Rs LFE
Sampling rate : 48.0 kHz
Frame rate : 46.875 FPS (1024 SPF)
Compression mode : Lossy
Stream size : 255 MiB (4%)
Title : English 5.1 Surround
Language : English
Default : Yes
Forced : No

Audio #2
ID : 4
Format : AAC LC
Format/Info : Advanced Audio Codec Low Complexity
Codec ID : A_AAC-2
Duration : 1 h 52 min
Bit rate : 317 kb/s
Channel(s) : 2 channels
Channel layout : L R
Sampling rate : 48.0 kHz
Frame rate : 46.875 FPS (1024 SPF)
Compression mode : Lossy
Stream size : 255 MiB (4%)
Language : English
Default : No
Forced : No

Text
ID : 2
Format : ASS
Codec ID : S_TEXT/ASS
Codec ID/Info : Advanced Sub Station Alpha
Duration : 1 h 51 min
Bit rate : 123 b/s
Count of elements : 1407
Compression mode : Lossless
Stream size : 100 KiB (0%)
Title : English Captions
Language : English
Default : Yes
Forced : No

Discussion

Comments 0

Post Your Comment

Files in this torrent

FILENAMESIZE
Clone Wars Film Cuts Viewing Order.txt1.7 KB
Star Wars The Clone Wars - 0.7 The Battle of Ryloth Film Cut 1080P.mkv6 GB
Star Wars The Clone Wars - 0.8 Second Battle of Geonosis Film Cut 1080P.mkv5.5 GB
Star Wars The Clone Wars - 1.1 The Menace of Cad Bane Film Cut 1080P.mkv6.5 GB
Star Wars The Clone Wars - 3.1 The Citadel Film Cut 1080P.mkv3.3 GB
Star Wars The Clone Wars - 4.2 The Rako Hardeen Film Cut 1080P.mkv4.4 GB
Star Wars The Clone Wars - 6.1 The Order 66 Arc Film Cut 1080P.mkv4.4 GB
Star Wars The Clone Wars - 6.2 The Banking Clan Film Cut 1080P.mkv3.3 GB

Alternative Torrents for 'Star Wars Clone Wars TV Film Cuts Batch II NumeralJ'.

TORRENT NAMEADDEDSIZESEEDSPEERSHEALTH
11/20/202069 GB40
11/20/202033.2 GB20