Stargirl (2020) WEB-DLRip-AVC From Wolf1245 & MediaBit

Torrent Details

Stargirl (2020) WEB-DLRip-AVC from wolf1245 & MediaBit

NAME
Stargirl (2020) WEB-DLRip-AVC from wolf1245 & MediaBit.torrent
CATEGORY
Movies
INFOHASH
416cb3fa692caa12dac0535b3c0269b21dcaa323
SIZE
1.5 GB in 1 file
ADDED
Uploaded on 20-11-2020 by our crawler pet called "Spidey".
SWARM
1 seeders & 0 peers
RATING
No votes yet.

Please login to vote for this torrent.


Description

Старгёрл / Stargirl









Информация о фильме:

Название: Старгёрл

Оригинальное название: Stargirl

Год выхода: 2020

Жанр: Драма, мелодрама, комедия

Режиссер: Джулия Харт

В ролях: Дэрби Стэнчфилд, Джанкарло Эспозито, Грэйс Вандервол, Шелби Симмонс, Грэм Верчир, Каран Брэр, Максимилиано Эрнандес, Дэмиан О'Хейр, Стэйси Джонсон, Кимберли В Сэндфер



Описание: Экранизация одноименной книги Джерри Спирелли. Скромный старшеклассник по необъяснимым причинам тянется к свободной духом новенькой и проводит все свое свободное время, пытаясь узнать о ней больше. В результате - яркой и свободолюбивой девочке удалось изменить и обычного, невидимого подростка по имени Лео и жизнь всей школы.







Страна: США

Студия: BCDF Pictures, Gotham Group, Hahnscape Entertainment

Продолжительность: 01:43:19

Перевод: Любительский (многоголосый, закадровый) - Синема УС







Информация о файле:

Кодек: AVC

Формат: MKV

Качество: WEB-DLRip-AVC

Видео: MPEG-4 AVC, 1024x512(2.000), 23.976 fps, 1818 kbps, 0.145

Аудио RU: AC3, 2 ch, 48 kHz, 192 kbps

Субтитры: Русские, английские







Скриншоты

MediaInfox264 info: frame I:1078 Avg QP:15.41 size: 76634

x264 info: frame P:34618 Avg QP:19.42 size: 20278

x264 info: frame B:112935 Avg QP:20.87 size: 5525

General

Unique ID : 235260820693183124562131889423525272732 (0xB0FD95FF99DB39D1F06B01E3CCE2DC9C)

Complete name : D:uTorrentРипы_от_wolf1245_MediaBitStargirl (2020) WEB-DLRip-AVC from wolf1245 & MediaBit.mkv

Format : Matroska

Format version : Version 4

File size : 1.45 GiB

Duration : 1 h 43 min

Overall bit rate : 2 012 kb/s

Movie name : Stargirl (2020) WEB-DLRip-AVC from wolf1245 & MediaBit

Encoded date : UTC 2020-11-20 17:56:32

Writing application : mkvmerge v51.0.0 ('I Wish') 64-bit

Writing library : libebml v1.4.0 + libmatroska v1.6.2



Video

ID : 1

Format : AVC

Format/Info : Advanced Video Codec

Format profile : [email protected]

Format settings : CABAC / 12 Ref Frames

Format settings, CABAC : Yes

Format settings, Reference frames : 12 frames

Codec ID : V_MPEG4/ISO/AVC

Duration : 1 h 43 min

Bit rate : 1 818 kb/s

Width : 1 024 pixels

Height : 512 pixels

Display aspect ratio : 2.000

Frame rate mode : Constant

Frame rate : 23.976 (24000/1001) FPS

Color space : YUV

Chroma subsampling : 4:2:0

Bit depth : 8 bits

Scan type : Progressive

Bits/(Pixel*Frame) : 0.145

Stream size : 1.31 GiB (90%)

Title : wolf1245 & MediaBit

Writing library : x264 core 157 r2958 57baac4

Encoding settings : cabac=1 / ref=12 / deblock=1:-3:-3 / analyse=0x3:0x133 / me=umh / subme=11 / psy=1 / psy_rd=1.03:0.03 / mixed_ref=1 / me_range=48 / chroma_me=1 / trellis=2 / 8x8dct=1 / cqm=0 / deadzone=21,11 / fast_pskip=0 / chroma_qp_offset=-3 / threads=10 / lookahead_threads=2 / sliced_threads=0 / nr=0 / decimate=0 / interlaced=0 / bluray_compat=0 / constrained_intra=0 / bframes=12 / b_pyramid=2 / b_adapt=2 / b_bias=0 / direct=3 / weightb=1 / open_gop=0 / weightp=2 / keyint=240 / keyint_min=24 / scenecut=40 / intra_refresh=0 / rc_lookahead=100 / rc=2pass / mbtree=0 / bitrate=1818 / ratetol=1.0 / qcomp=0.60 / qpmin=0 / qpmax=69 / qpstep=4 / cplxblur=20.0 / qblur=0.5 / vbv_maxrate=50000 / vbv_bufsize=62500 / nal_hrd=none / filler=0 / ip_ratio=1.40 / pb_ratio=1.30 / aq=2:0.80

Language : English

Default : Yes

Forced : No

Color range : Limited

Color primaries : BT.709

Transfer characteristics : BT.709

Matrix coefficients : BT.709



Audio

ID : 2

Format : AC-3

Format/Info : Audio Coding 3

Commercial name : Dolby Digital

Codec ID : A_AC3

Duration : 1 h 43 min

Bit rate mode : Constant

Bit rate : 192 kb/s

Channel(s) : 2 channels

Channel layout : L R

Sampling rate : 48.0 kHz

Frame rate : 31.250 FPS (1536 SPF)

Compression mode : Lossy

Stream size : 142 MiB (10%)

Title : MVO | Синема УС

Language : Russian

Service kind : Complete Main

Default : Yes

Forced : No



Text #1

ID : 3

Format : UTF-8

Codec ID : S_TEXT/UTF8

Codec ID/Info : UTF-8 Plain Text

Duration : 1 h 42 min

Bit rate : 84 b/s

Count of elements : 1045

Stream size : 63.6 KiB (0%)

Language : Russian

Default : No

Forced : No



Text #2

ID : 4

Format : UTF-8

Codec ID : S_TEXT/UTF8

Codec ID/Info : UTF-8 Plain Text

Duration : 1 h 42 min

Bit rate : 58 b/s

Count of elements : 1222

Stream size : 43.5 KiB (0%)

Title : English (SDH)

Language : English

Default : No

Forced : No







Релиз от: & &

Discussion

Comments 0

Post Your Comment

Files in this torrent

FILENAMESIZE
Stargirl (2020) WEB-DLRip-AVC from wolf1245 & MediaBit.mkv1.5 GB

Alternative Torrents for 'Stargirl DLRipAVC from wolf MediaBit'.

There are no alternative torrents found.