Stargirl 2020 WEB-DL 1080p

Torrent Details

Stargirl 2020 WEB-DL 1080p

NAME
Stargirl 2020 WEB-DL 1080p.torrent
CATEGORY
Movies
INFOHASH
1eed6711893ea127a9658414d5f69b815e71a929
SIZE
6.4 GB in 1 file
ADDED
Uploaded on 22-11-2020 by our crawler pet called "Spidey".
SWARM
0 seeders & 0 peers
RATING
No votes yet.

Please login to vote for this torrent.


Description

Информация о фильме

Название: Старгёрл

Оригинальное название: Stargirl

Год выхода: 2020

Жанр: Драма, мелодрама, комедия

Режиссер: Джулия Харт

В ролях: Дэрби Стэнчфилд, Джанкарло Эспозито, Грэйс Вандервол, Шелби Симмонс, Грэм Верчир, Каран Брэр, Максимилиано Эрнандес, Дэмиан О'Хейр, Стэйси Джонсон, Кимберли В Сэндфер



Описание:

Экранизация одноименной книги Джерри Спирелли. Скромный старшеклассник по необъяснимым причинам тянется к свободной духом новенькой и проводит все свое свободное время, пытаясь узнать о ней больше. В результате - яркой и свободолюбивой девочке удалось изменить и обычного, невидимого подростка по имени Лео и жизнь всей школы.







Страна: США

Студия: BCDF Pictures, Gotham Group, Hahnscape Entertainment

Продолжительность: 01:43:19

Перевод: Любительский (многоголосый, закадровый) - Синема УС

Субтитры: Russian, English



Файл

Формат: Matroska

Качество: WEB-DL 1080p

Видео: AVC/H.264, 1920x1080, ~8471 Kbps

Аудио #1: AC3, 2 ch, 192 Kbps - Русский

Аудио #2: E-AC3, 6 ch, 256 Kbps - Английский

Формат субтитров: softsub (SRT)

► Без Рекламы!



M/IОбщее

Формат : Matroska

Версия формата : Version 4

Размер файла : 6,44 Гбайт

Продолжительность : 1 ч. 43 м.

Режим общего битрейта : Переменный

Общий поток : 8921 Кбит/сек

Название фильма : Старгёрл / Stargirl / 2020

Дата кодирования : UTC 2020-11-11 19:30:28

Программа кодирования : mkvmerge v25.0.0 ('Prog Noir') 64-bit

Библиотека кодирования : libebml v1.3.6 + libmatroska v1.4.9



Видео

Идентификатор : 1

Формат : AVC

Формат/Информация : Advanced Video Codec

Профиль формата : [email protected]

Настройки формата : CABAC / 4 Ref Frames

Параметр CABAC формата : Да

Параметр RefFrames формата : 4 кадра

Идентификатор кодека : V_MPEG4/ISO/AVC

Продолжительность : 1 ч. 43 м.

Вид битрейта : Переменный

Битрейт : 8471 Кбит/сек

Максимальный битрейт : 12,7 Мбит/сек

Ширина : 1920 пикселей

Высота : 1080 пикселей

Соотношение сторон : 16:9

Режим частоты кадров : Постоянный

Частота кадров : 23,976 (24000/1001) кадра/сек

Цветовое пространство : YUV

Субдискретизация насыщенности : 4:2:0

Битовая глубина : 8 бит

Тип развёртки : Прогрессивная

Бит/(Пиксели*Кадры) : 0.170

Размер потока : 6,11 Гбайт (95%)

Язык : English

Default : Да

Forced : Нет

Цветовой диапазон : Limited

Основные цвета : BT.709

Характеристики трансфера : BT.709

Коэффициенты матрицы : BT.709



Аудио #1

Идентификатор : 2

Формат : AC-3

Формат/Информация : Audio Coding 3

Коммерческое название : Dolby Digital

Идентификатор кодека : A_AC3

Продолжительность : 1 ч. 43 м.

Вид битрейта : Постоянный

Битрейт : 192 Кбит/сек

Каналы : 2 канала

ChannelLayout : L R

Частота : 48,0 КГц

Частота кадров : 31,250 кадров/сек (1536 SPF)

Метод сжатия : С потерями

Размер потока : 142 Мбайт (2%)

Заголовок : MVO - KinoPub

Язык : Russian

ServiceKind : Complete Main

Default : Да

Forced : Нет



Аудио #2

Идентификатор : 3

Формат : E-AC-3

Формат/Информация : Enhanced AC-3

Коммерческое название : Dolby Digital Plus

Идентификатор кодека : A_EAC3

Продолжительность : 1 ч. 43 м.

Вид битрейта : Постоянный

Битрейт : 256 Кбит/сек

Каналы : 6 каналов

ChannelLayout : L R C LFE Ls Rs

Частота : 48,0 КГц

Частота кадров : 31,250 кадров/сек (1536 SPF)

Метод сжатия : С потерями

Размер потока : 189 Мбайт (3%)

Язык : English

ServiceKind : Complete Main

Default : Нет

Forced : Нет



Текст #1

Идентификатор : 4

Формат : UTF-8

Идентификатор кодека : S_TEXT/UTF8

Идентификатор кодека/Информация : UTF-8 Plain Text

Продолжительность : 1 ч. 42 м.

Битрейт : 84 бит/сек

ElementCount : 1045

Размер потока : 63,6 Кбайт (0%)

Язык : Russian

Default : Нет

Forced : Нет



Текст #2

Идентификатор : 5

Формат : UTF-8

Идентификатор кодека : S_TEXT/UTF8

Идентификатор кодека/Информация : UTF-8 Plain Text

Продолжительность : 1 ч. 42 м.

Битрейт : 58 бит/сек

ElementCount : 1222

Размер потока : 43,5 Кбайт (0%)

Заголовок : English (SDH)

Язык : English

Default : Нет

Forced : НетСкриншоты

Discussion

Comments 0

Post Your Comment

Files in this torrent

FILENAMESIZE
Stargirl.2020.WEB-DL.1080p.mkv6.4 GB

Alternative Torrents for 'Stargirl'.

TORRENT NAMEADDEDSIZESEEDSPEERSHEALTH
2/12/2021161 MB24418
2/18/2021198 MB23066
2/12/2021174 MB22824
2/18/2021248 MB21377
2/18/2021175 MB21268
11/18/20204.6 GB12011
2/5/2021325 MB1172
2/5/2021247 MB1155
1/26/2021225 MB912
1/27/2021237 MB875
1/27/2021357 MB834
1/13/2021426 MB823
1/27/2021194 MB762
1/13/2021247 MB732
5/18/2020311 MB685