No Escape Escape From Absolom (1994) BDRip-HEVC 1080p 10 Bit

Torrent Details


No Escape  Escape from absolom (1994) BDRip-HEVC 1080p 10 bit

NAME
No Escape Escape from absolom (1994) BDRip-HEVC 1080p 10 bit.torrent
CATEGORY
Movies
INFOHASH
19a2fe5b3f94cfa16d24b2dc58a3140bce62d058
SIZE
6.1 GB in 1 file
ADDED
Uploaded on 26-11-2020 by our crawler pet called "Spidey".
SWARM
5 seeders & 1 peers
RATING
No votes yet.

Please login to vote for this torrent.


Description

Год выхода: 1994

Страна: США

Студия: Columbia Pictures Corporation, Pacific Western, Platinum Pictures (III)

Жанр: Фантастика, боевик, триллер, драма

Продолжительность: 01:58:05

Перевод: Профессиональный (многоголосый закадровый), авторские (одноголосые закадровые)



Режиссер: Мартин Кэмпбелл

В ролях: Рэй Лиотта, Лэнс Хенриксен, Стюарт Уилсон, Кевин Диллон, Кевин Дж. О`Коннор, Дон Хендерсон, Иэн МакНис, Джек Шеферд, Майкл Лернер, Эрни Хадсон



Описание: В 2022 году начальник одной из колоний создал совершенную тюрьму будущего. У нее нет ни стен, ни надзирателей, ни камер. Однако убежать оттуда невозможно. Абсолом — затерянный остров, на котором самые опасные заключенные страны предоставлены самим себе. Навсегда отрезанные от цивилизации, они живут по законам первобытного общества. Одни уже мало чем отличаются от животных, другие еще пытаются сохранить человеческий облик. Капитан морской пехоты Джон Роббинс попал на Абсолом после того, как отказался выполнять несправедливый приказ. И он — единственный из заключенных, кто решил доказать всем, что совершенных тюрем не бывает…







Качество: BDRip-HEVC 1080p

Видео: HEVC/x.265, 1920x800, ~6419 kb/s

Аудио 1: AC3, 2 ch, 192 Kbps - Русский, MVO (Видеосервис)

Аудио 2: AC3, 2 ch, 192 Kbps - Русский, AVO (Михалев)

Аудио 3: AC3, 2 ch, 192 Kbps - Русский, AVO (Чадов)

Аудио 4: AC3, 6 ch, 448 Kbps - Английский

Субтитры: Английские





Mediainfo



x265 [info]: frame I: 1536, Avg QP:17.45 kb/s: 20835.36

x265 [info]: frame P: 36104, Avg QP:18.98 kb/s: 13525.83

x265 [info]: frame B: 132247, Avg QP:20.95 kb/s: 4310.35

x265 [info]: Weighted P-Frames: Y:15.3% UV:11.7%

x265 [info]: Weighted B-Frames: Y:10.5% UV:7.2%

x265 [info]: consecutive B-frames: 6.6% 4.0% 7.7% 45.2% 6.9% 17.3% 4.3% 7.7% 0.2% 0.1% 0.1%



General

Unique ID : 85703937391099955437722959879231587843 (0x4079FA5A1A0064CA7F7856161C094603)

Complete name : G:HEVC-CLUBNo Escape Escape from absolom (1994) BDRip-HEVC 1080p 10 bit.mkv

Format : Matroska

Format version : Version 4

File size : 6.14 GiB

Duration : 1 h 58 min

Overall bit rate : 7 446 kb/s

Movie name : by-hannibal (hevc-club)

Encoded date : UTC 2020-11-26 15:00:57

Writing application : mkvmerge v47.0.0 ('Black Flag') 64-bit

Writing library : libebml v1.3.10 + libmatroska v1.5.2

Cover : Yes

Attachments : cover.jpg



Video

ID : 1

Format : HEVC

Format/Info : High Efficiency Video Coding

Format profile : Main [email protected]@High

Codec ID : V_MPEGH/ISO/HEVC

Duration : 1 h 58 min

Bit rate : 6 419 kb/s

Width : 1 920 pixels

Height : 800 pixels

Display aspect ratio : 2.40:1

Frame rate mode : Constant

Frame rate : 23.976 (23976/1000) FPS

Original frame rate : 23.976 (24000/1001) FPS

Color space : YUV

Chroma subsampling : 4:2:0

Bit depth : 10 bits

Bits/(Pixel*Frame) : 0.174

Stream size : 5.29 GiB (86%)

Writing library : x265 3.3+33-04275ae58030:[Windows][GCC 10.1.0][64 bit] 10bit

Encoding settings : cpuid=1111039 / frame-threads=3 / numa-pools=12 / wpp / no-pmode / no-pme / no-psnr / no-ssim / log-level=2 / input-csp=1 / input-res=1920x800 / interlace=0 / total-frames=169887 / level-idc=41 / high-tier=1 / uhd-bd=0 / ref=5 / no-allow-non-conformance / no-repeat-headers / annexb / no-aud / no-hrd / info / hash=0 / no-temporal-layers / open-gop / min-keyint=23 / keyint=240 / gop-lookahead=0 / bframes=10 / b-adapt=2 / b-pyramid / bframe-bias=0 / rc-lookahead=60 / lookahead-slices=0 / scenecut=40 / hist-scenecut=0 / radl=0 / no-splice / no-intra-refresh / ctu=32 / min-cu-size=8 / rect / amp / max-tu-size=32 / tu-inter-depth=3 / tu-intra-depth=3 / limit-tu=0 / rdoq-level=2 / dynamic-rd=0.00 / no-ssim-rd / signhide / no-tskip / nr-intra=0 / nr-inter=0 / no-constrained-intra / strong-intra-smoothing / max-merge=5 / limit-refs=0 / no-limit-modes / me=3 / subme=7 / merange=57 / temporal-mvp / no-frame-dup / no-hme / weightp / weightb / no-analyze-src-pics / deblock=0:0 / no-sao / no-sao-non-deblock / rd=4 / selective-sao=0 / no-early-skip / rskip / no-fast-intra / no-tskip-fast / no-cu-lossless / b-intra / no-splitrd-skip / rdpenalty=0 / psy-rd=2.00 / psy-rdoq=1.00 / no-rd-refine / no-lossless / cbqpoffs=0 / crqpoffs=0 / rc=crf / crf=20.0 / qcomp=0.70 / qpstep=4 / stats-write=0 / stats-read=0 / vbv-maxrate=50000 / vbv-bufsize=50000 / vbv-init=0.9 / crf-max=0.0 / crf-min=0.0 / ipratio=1.40 / pbratio=1.30 / aq-mode=2 / aq-strength=1.00 / no-cutree / zone-count=0 / no-strict-cbr / qg-size=32 / no-rc-grain / qpmax=69 / qpmin=0 / no-const-vbv / sar=1 / overscan=0 / videoformat=5 / range=0 / colorprim=1 / transfer=1 / colormatrix=1 / chromaloc=0 / display-window=0 / cll=0,0 / min-luma=0 / max-luma=1023 / log2-max-poc-lsb=8 / vui-timing-info / vui-hrd-info / slices=1 / no-opt-qp-pps / no-opt-ref-list-length-pps / no-multi-pass-opt-rps / scenecut-bias=0.05 / hist-threshold=0.01 / no-opt-cu-delta-qp / no-aq-motion / no-hdr10 / no-hdr10-opt / no-dhdr10-opt / no-idr-recovery-sei / analysis-reuse-level=0 / analysis-save-reuse-level=0 / analysis-load-reuse-level=0 / scale-factor=0 / refine-intra=0 / refine-inter=0 / refine-mv=1 / refine-ctu-distortion=0 / no-limit-sao / ctu-info=0 / no-lowpass-dct / refine-analysis-type=0 / copy-pic=1 / max-ausize-factor=1.0 / no-dynamic-refine / no-single-sei / no-hevc-aq / no-svt / no-field / qp-adaptation-range=1.00 / no-scenecut-aware-qpconformance-window-offsets / right=0 / bottom=0 / decoder-max-rate=0

Default : Yes

Forced : No

Color range : Limited

Color primaries : BT.709

Transfer characteristics : BT.709

Matrix coefficients : BT.709



Audio #1

ID : 2

Format : AC-3

Format/Info : Audio Coding 3

Commercial name : Dolby Digital

Codec ID : A_AC3

Duration : 1 h 58 min

Bit rate mode : Constant

Bit rate : 192 kb/s

Channel(s) : 2 channels

Channel layout : L R

Sampling rate : 48.0 kHz

Frame rate : 31.250 FPS (1536 SPF)

Compression mode : Lossy

Stream size : 162 MiB (3%)

Title : MVO Видеосервис

Language : Russian

Service kind : Complete Main

Default : Yes

Forced : No



Audio #2

ID : 3

Format : AC-3

Format/Info : Audio Coding 3

Commercial name : Dolby Digital

Codec ID : A_AC3

Duration : 1 h 58 min

Bit rate mode : Constant

Bit rate : 192 kb/s

Channel(s) : 2 channels

Channel layout : L R

Sampling rate : 48.0 kHz

Frame rate : 31.250 FPS (1536 SPF)

Compression mode : Lossy

Stream size : 162 MiB (3%)

Title : AVO Михалев

Language : Russian

Service kind : Complete Main

Default : No

Forced : No



Audio #3

ID : 4

Format : AC-3

Format/Info : Audio Coding 3

Commercial name : Dolby Digital

Codec ID : A_AC3

Duration : 1 h 58 min

Bit rate mode : Constant

Bit rate : 192 kb/s

Channel(s) : 2 channels

Channel layout : L R

Sampling rate : 48.0 kHz

Frame rate : 31.250 FPS (1536 SPF)

Compression mode : Lossy

Stream size : 162 MiB (3%)

Title : AVO Чадов

Language : Russian

Service kind : Complete Main

Default : No

Forced : No



Audio #4

ID : 5

Format : AC-3

Format/Info : Audio Coding 3

Commercial name : Dolby Digital

Codec ID : A_AC3

Duration : 1 h 58 min

Bit rate mode : Constant

Bit rate : 448 kb/s

Channel(s) : 2 channels

Channel layout : L R

Sampling rate : 48.0 kHz

Frame rate : 31.250 FPS (1536 SPF)

Compression mode : Lossy

Stream size : 378 MiB (6%)

Title : eng

Language : English

Service kind : Complete Main

Default : No

Forced : No



Text

ID : 6

Format : UTF-8

Codec ID : S_TEXT/UTF8

Codec ID/Info : UTF-8 Plain Text

Duration : 1 h 51 min

Bit rate : 29 b/s

Count of elements : 674

Stream size : 24.4 KiB (0%)

Title : Full

Language : English

Default : No

Forced : No



Menu

00:00:00.000 : en:Глава 01

00:00:37.704 : en:Глава 02

00:11:31.732 : en:Глава 03

00:13:48.702 : en:Глава 04

00:24:22.961 : en:Глава 05

00:34:43.998 : en:Глава 06

00:45:02.324 : en:Глава 07

00:56:30.011 : en:Глава 08

01:05:54.450 : en:Глава 09

01:21:51.197 : en:Глава 10

01:25:05.767 : en:Глава 11

01:42:31.603 : en:Глава 12

01:53:51.366 : en:Глава 13

Скриншоты





Релиз от: HANNIBAL

Discussion

Comments 0

Post Your Comment

Files in this torrent

FILENAMESIZE
No Escape Escape from absolom (1994) BDRip-HEVC 1080p 10 bit.mkv6.1 GB

Alternative Torrents for 'No Escape Escape from absolom HEVC bit'.

TORRENT NAMEADDEDSIZESEEDSPEERSHEALTH
11/26/20206.1 GB51