Paris Texas (1984) ITA-ENG AC3 2.0 BDRip 1080p H264 [ArMor]

Torrent Details

Paris Texas <span style=color:#777>(1984)</span> ITA-ENG AC3 2.0 BDRip 1080p H264 <span style=color:#fc9c6d>[ArMor]</span>

NAME
Paris Texas (1984) ITA-ENG AC3 2.0 BDRip 1080p H264 [ArMor].torrent
CATEGORY
Movies
INFOHASH
d896c696789e217ca89148537260764e2d6a5551
SIZE
5.7 GB in 3 files
ADDED
Uploaded on 27-11-2020 by our crawler pet called "Spidey".
SWARM
0 seeders & 1 peers
RATING
No votes yet.

Please login to vote for this torrent.


Description













Regista: Wim Wenders

Genere: Drammatico

Anno: 1984

Paese: Francia, Germania, Gran Bretagna, USA

Durata: 150 min

Distribuzione: Academy Pictures - General Video, San Paolo Audiovisivi







Harry Dean Stanton, Dean Stockwell, Socorro Valdez, Bernhard Wicki, Nastassja Kinski, John Lurie, Sam Berry, Hunter Carson, Aurore Clément, Tom Farrell, Justin Hogg







In una vasta zona desertica, nei pressi del confine tra Messico e Stati Uniti, un uomo vaga senza meta. Stremato, entra in un bar di una stazione di servizio e cade in terra svenuto. Subito viene soccorso da un medico, che gli chiede informazioni: il vagabondo potrebbe raccontare che si chiama Travis (Harry Dean Stanton) e che è divorato dal rimorso e dal senso di colpa nei confronti del figlioletto Hunter e della moglie Jane (Nastassja Kinski), che aveva tormentato con la sua gelosia.







Travis Henderson, an aimless drifter who has been missing for four years, wanders out of the desert and must reconnect with society, himself, his life, and his family.

























General

Unique ID                                : 224839582059969027660161958136527058780 (0xA9268743BBC3E98B9E606AEE95DDF75C)

Complete name                            : Paris Texas (1984) ITA-ENG Ac3 5.1 BDRip 1080p H264 [ArMor].mkv

Format                                   : Matroska

Format version                           : Version 4

File size                                : 5.72 GiB

Duration                                 : 2 h 25 min

Overall bit rate                         : 5 636 kb/s

Encoded date                             : UTC 2020-11-24 23:30:28

Writing application                      : mkvmerge v15.0.0 ('Duel with the Devil') 64-bit

Writing library                          : libebml v1.3.5 + libmatroska v1.4.5 / Lavf58.29.100



Video

ID                                       : 1

Format                                   : AVC

Format/Info                              : Advanced Video Codec

Format profile                           : [email protected]

Format settings                          : CABAC / 4 Ref Frames

Format settings, CABAC                   : Yes

Format settings, Reference frames        : 4 frames

Codec ID                                 : V_MPEG4/ISO/AVC

Duration                                 : 2 h 25 min

Bit rate                                 : 5 000 kb/s

Width                                    : 1 920 pixels

Height                                   : 1 080 pixels

Display aspect ratio                     : 16:9

Frame rate mode                          : Constant

Frame rate                               : 23.976 (24000/1001) FPS

Color space                              : YUV

Chroma subsampling                       : 4:2:0

Bit depth                                : 8 bits

Scan type                                : Progressive

Bits/(Pixel*Frame)                       : 0.101

Stream size                              : 5.06 GiB (89%)

Writing library                          : x264 core 157 r2935 545de2f

Encoding settings                        : cabac=1 / ref=2 / deblock=1:0:0 / analyse=0x1:0x111 / me=hex / subme=6 / psy=1 / psy_rd=1.00:0.00 / mixed_ref=1 / me_range=16 / chroma_me=1 / trellis=1 / 8x8dct=0 / cqm=0 / deadzone=21,11 / fast_pskip=1 / chroma_qp_offset=-2 / threads=18 / lookahead_threads=3 / sliced_threads=0 / nr=0 / decimate=1 / interlaced=0 / bluray_compat=0 / constrained_intra=0 / bframes=3 / b_pyramid=2 / b_adapt=1 / b_bias=0 / direct=1 / weightb=1 / open_gop=0 / weightp=1 / keyint=240 / keyint_min=24 / scenecut=40 / intra_refresh=0 / rc_lookahead=30 / rc=abr / mbtree=1 / bitrate=5000 / ratetol=1.0 / qcomp=0.60 / qpmin=0 / qpmax=69 / qpstep=4 / vbv_maxrate=20000 / vbv_bufsize=25000 / nal_hrd=none / filler=0 / ip_ratio=1.40 / aq=1:1.00

Default                                  : Yes

Forced                                   : No

Color range                              : Limited

Color primaries                          : BT.709

Transfer characteristics                 : BT.709

Matrix coefficients                      : BT.709



Audio #1

ID                                       : 2

Format                                   : AC-3

Format/Info                              : Audio Coding 3

Commercial name                          : Dolby Digital

Codec ID                                 : A_AC3

Duration                                 : 2 h 25 min

Bit rate mode                            : Constant

Bit rate                                 : 192 kb/s

Channel(s)                               : 2 channels

Channel layout                           : L R

Sampling rate                            : 48.0 kHz

Frame rate                               : 31.250 FPS (1536 SPF)

Compression mode                         : Lossy

Stream size                              : 199 MiB (3%)

Title                                    : DVD

Language                                 : Italian

Service kind                             : Complete Main

Default                                  : Yes

Forced                                   : No



Audio #2

ID                                       : 3

Format                                   : AC-3

Format/Info                              : Audio Coding 3

Commercial name                          : Dolby Digital

Codec ID                                 : A_AC3

Duration                                 : 2 h 25 min

Bit rate mode                            : Constant

Bit rate                                 : 448 kb/s

Channel(s)                               : 6 channels

Channel layout                           : L R C LFE Ls Rs

Sampling rate                            : 48.0 kHz

Frame rate                               : 31.250 FPS (1536 SPF)

Compression mode                         : Lossy

Stream size                              : 465 MiB (8%)

Title                                    : DTS

Language                                 : English

Service kind                             : Complete Main

Default                                  : No

Forced                                   : No









Discussion

Comments 0

Post Your Comment

Files in this torrent

FILENAMESIZE
Paris Texas (1984) ITA-ENG Ac3 2.0 BDRip 1080p H264 [ArMor].mkv5.7 GB
Paris.Texas.1984.ITA-ENG.Bluray.1080p_ita.srt18.9 KB
sht5yw5w2y25674iku.jpg144.4 KB

Alternative Torrents for 'Paris Texas ENG'.

TORRENT NAMEADDEDSIZESEEDSPEERSHEALTH
11/27/20205.7 GB01
11/20/20205.6 GB00