After We Collided 2020 BDREMUX 1080p SeleZen

Torrent Details

After We Collided 2020 BDREMUX 1080p<span style=color:#fc9c6d> seleZen</span>

NAME
After We Collided 2020 BDREMUX 1080p seleZen.torrent
CATEGORY
Movies
INFOHASH
8cc9bc0a81fea20df348eb6b21afdbd35892d0be
SIZE
17.3 GB in 1 file
ADDED
Uploaded on 27-11-2020 by our crawler pet called "Spidey".
SWARM
3 seeders & 2 peers
RATING
No votes yet.

Please login to vote for this torrent.


Description

Информация о фильме

Название: После. Глава 2

Оригинальное название: After We Collided

Год выхода: 2020

Жанр: Драма, мелодрама

Режиссер: Роджер Камбл

В ролях: Джозефин Лэнгфорд, Хиро Файнс-Тиффин, Луиза Ломбард, Дилан Спроус, Кэндис Кинг, Чарли Уэбер, Макс Рагоун, Сэлма Блэр, Шэйн Пол МакГи, Роб Эстес







О фильме: Встреча с Хардином разделила её жизнь на до и после. Молодые и такие разные – от их страсти буквально разлетаются искры. Однако внезапно в жизни девушки появляется новый знакомый, который готов положить к её ногам весь мир…



Страна: США

Студия: CalMaple, Frayed Pages Entertainment

Продолжительность: 01:45:51

Перевод: Дублированный | iTunes



Качество: BDRemux 1080p

Видео: MPEG-4 AVC, 1920x1080, 18.9 Mbit/s, 24.000 fps

Аудио #01: 48 kHz, AC3, 5.1, 384 Kbps | iTunes | RUS |

Аудио #02: 48 kHz, DTS-HD MA, 5.1, 4101 Kbps | Оригинал | ENG |

Субтитры: Русские (Full), английские







MIGeneral

Unique ID : 302629142623866786562631398422389627309 (0xE3AC40B65827B495AE6B69E4D10E99AD)

Complete name : D:Video111After.We.Collided.2020.BDREMUX.1080p.seleZen.mkv

Format : Matroska

Format version : Version 4

File size : 17.3 GiB

Duration : 1 h 45 min

Overall bit rate mode : Variable

Overall bit rate : 23.4 Mb/s

Movie name : After We Collided 2020 from seleZen

Encoded date : UTC 2020-11-27 20:59:42

Writing application : mkvmerge v40.0.0 ('Old Town Road + Pony') 64-bit

Writing library : libebml v1.3.9 + libmatroska v1.5.2



Video

ID : 1

Format : AVC

Format/Info : Advanced Video Codec

Format profile : [email protected]

Format settings : CABAC / 4 Ref Frames

Format settings, CABAC : Yes

Format settings, Reference : 4 frames

Format settings, GOP : M=3, N=12

Codec ID : V_MPEG4/ISO/AVC

Duration : 1 h 45 min

Bit rate mode : Variable

Bit rate : 18.9 Mb/s

Maximum bit rate : 29.0 Mb/s

Width : 1 920 pixels

Height : 1 080 pixels

Display aspect ratio : 16:9

Frame rate mode : Constant

Frame rate : 24.000 FPS

Color space : YUV

Chroma subsampling : 4:2:0

Bit depth : 8 bits

Scan type : Progressive

Bits/(Pixel*Frame) : 0.380

Stream size : 14.0 GiB (81%)

Language : Italian

Default : Yes

Forced : No



Audio #1

ID : 2

Format : AC-3

Format/Info : Audio Coding 3

Commercial name : Dolby Digital

Codec ID : A_AC3

Duration : 1 h 45 min

Bit rate mode : Constant

Bit rate : 384 kb/s

Channel(s) : 6 channels

Channel layout : L R C LFE Ls Rs

Sampling rate : 48.0 kHz

Frame rate : 31.250 FPS (1536 SPF)

Compression mode : Lossy

Stream size : 291 MiB (2%)

Title : iTunes

Language : Russian

Service kind : Complete Main

Default : Yes

Forced : Yes



Audio #2

ID : 3

Format : DTS XLL

Format/Info : Digital Theater Systems

Commercial name : DTS-HD Master Audio

Codec ID : A_DTS

Duration : 1 h 45 min

Bit rate mode : Variable

Bit rate : 4 101 kb/s

Channel(s) : 6 channels

Channel layout : C L R Ls Rs LFE

Sampling rate : 48.0 kHz

Frame rate : 93.750 FPS (512 SPF)

Bit depth : 24 bits

Compression mode : Lossless

Stream size : 3.03 GiB (18%)

Title : Original

Language : English

Default : No

Forced : No



Text #1

ID : 4

Format : UTF-8

Codec ID : S_TEXT/UTF8

Codec ID/Info : UTF-8 Plain Text

Duration : 1 h 39 min

Bit rate : 91 b/s

Count of elements : 1452

Stream size : 66.8 KiB (0%)

Title : Full

Language : Russian

Default : No

Forced : No



Text #2

ID : 5

Format : UTF-8

Codec ID : S_TEXT/UTF8

Codec ID/Info : UTF-8 Plain Text

Duration : 1 h 39 min

Bit rate : 58 b/s

Count of elements : 1475

Stream size : 42.5 KiB (0%)

Title : Full

Language : English

Default : No

Forced : No



Menu

00:00:00.000 : it:Глава 01

00:08:40.750 : it:Глава 02

00:18:39.208 : it:Глава 03

00:27:14.208 : it:Глава 04

00:37:08.042 : it:Глава 05

00:44:45.583 : it:Глава 06

00:54:52.417 : it:Глава 07

01:03:24.750 : it:Глава 08

01:11:10.667 : it:Глава 09

01:19:24.500 : it:Глава 10

01:30:20.208 : it:Глава 11

01:38:32.417 : it:Глава 12



Релиз: Присоединяйся к:



Discussion

Comments 0

Post Your Comment

Files in this torrent

FILENAMESIZE
After.We.Collided.2020.BDREMUX.1080p.seleZen.mkv17.3 GB

Alternative Torrents for 'After We Collided'.

TORRENT NAMEADDEDSIZESEEDSPEERSHEALTH
10/23/2020966 MB32297
11/29/2020972 MB30229
10/23/20201.8 GB273219
12/3/20202 GB21536
10/22/2020795 MB13159
10/22/20203.6 GB12361
12/22/2020695 MB764
10/22/20201.5 GB762
10/22/20203.6 GB4324
10/24/20206.8 GB4229
11/28/20201.3 GB2814
10/22/20201.4 GB222
10/25/2020850 MB1719
10/24/20201.4 GB170
10/22/20201.4 GB121