After We Collided 2020 BDRip 720p SeleZen

Torrent Details

After We Collided 2020 BDRip 720p<span style=color:#fc9c6d> seleZen</span>

NAME
After We Collided 2020 BDRip 720p seleZen.torrent
CATEGORY
Movies
INFOHASH
c798a066463d81b9e29b9b9a2531a53ba79ec603
SIZE
4.8 GB in 1 file
ADDED
Uploaded on 28-11-2020 by our crawler pet called "Spidey".
SWARM
8 seeders & 2 peers
RATING
No votes yet.

Please login to vote for this torrent.


Description

Информация о фильме

Название: После. Глава 2

Оригинальное название: After We Collided

Год выхода: 2020

Жанр: Драма, мелодрама

Режиссер: Роджер Камбл

В ролях: Джозефин Лэнгфорд, Хиро Файнс-Тиффин, Луиза Ломбард, Дилан Спроус, Кэндис Кинг, Чарли Уэбер, Макс Рагоун, Сэлма Блэр, Шэйн Пол МакГи, Роб Эстес







О фильме: Встреча с Хардином разделила её жизнь на до и после. Молодые и такие разные – от их страсти буквально разлетаются искры. Однако внезапно в жизни девушки появляется новый знакомый, который готов положить к её ногам весь мир…



Страна: США

Студия: CalMaple, Frayed Pages Entertainment

Продолжительность: 01:45:51

Перевод: Дублированный | iTunes



Качество: BDRip 720p

Видео: MPEG-4 AVC, 1280x534, 5500 Kbit/s, 24.000 fps

Аудио #01: 48 kHz, AC3, 5.1, 384 Kbps | iTunes | RUS |

Аудио #02: 48 kHz, AC3, 5.1, 640 Kbps | Оригинал | ENG |

Субтитры: Русские (Full), английские







MIGeneral

Unique ID : 96513123110731452877247741171925296718 (0x489BC05A9AFC9D726B74876733ECA64E)

Complete name : D:Video111After.We.Collided.2020.BDRip.720p.seleZen.mkv

Format : Matroska

Format version : Version 4

File size : 4.82 GiB

Duration : 1 h 45 min

Overall bit rate : 6 524 kb/s

Movie name : After We Collided 2020 from seleZen

Encoded date : UTC 2020-11-28 01:16:57

Writing application : mkvmerge v40.0.0 ('Old Town Road + Pony') 64-bit

Writing library : libebml v1.3.9 + libmatroska v1.5.2



Video

ID : 1

Format : AVC

Format/Info : Advanced Video Codec

Format profile : [email protected]

Format settings : CABAC / 12 Ref Frames

Format settings, CABAC : Yes

Format settings, Reference : 12 frames

Codec ID : V_MPEG4/ISO/AVC

Duration : 1 h 45 min

Bit rate : 5 500 kb/s

Width : 1 280 pixels

Height : 534 pixels

Display aspect ratio : 2.40:1

Frame rate mode : Constant

Frame rate : 24.000 FPS

Color space : YUV

Chroma subsampling : 4:2:0

Bit depth : 8 bits

Scan type : Progressive

Bits/(Pixel*Frame) : 0.335

Stream size : 4.06 GiB (84%)

Title : Encoded by seleZen

Writing library : x264 core 157 r2935 545de2f

Encoding settings : cabac=1 / ref=12 / deblock=1:-2:-2 / analyse=0x3:0x133 / me=umh / subme=10 / psy=1 / psy_rd=1.00:0.00 / mixed_ref=1 / me_range=32 / chroma_me=1 / trellis=2 / 8x8dct=1 / cqm=0 / deadzone=21,11 / fast_pskip=0 / chroma_qp_offset=-2 / threads=17 / lookahead_threads=2 / sliced_threads=0 / nr=0 / decimate=0 / interlaced=0 / bluray_compat=0 / constrained_intra=0 / bframes=8 / b_pyramid=2 / b_adapt=2 / b_bias=0 / direct=1 / weightb=1 / open_gop=0 / weightp=1 / keyint=240 / keyint_min=24 / scenecut=40 / intra_refresh=0 / rc_lookahead=40 / rc=2pass / mbtree=0 / bitrate=5500 / ratetol=1.0 / qcomp=0.60 / qpmin=0 / qpmax=51 / qpstep=4 / cplxblur=20.0 / qblur=0.5 / vbv_maxrate=50000 / vbv_bufsize=62500 / nal_hrd=none / filler=0 / ip_ratio=1.40 / pb_ratio=1.30 / aq=1:1.00

Language : English

Default : Yes

Forced : No

Color range : Limited

Color primaries : BT.709

Transfer characteristics : BT.709

Matrix coefficients : BT.709



Audio #1

ID : 2

Format : AC-3

Format/Info : Audio Coding 3

Commercial name : Dolby Digital

Codec ID : A_AC3

Duration : 1 h 45 min

Bit rate mode : Constant

Bit rate : 384 kb/s

Channel(s) : 6 channels

Channel layout : L R C LFE Ls Rs

Sampling rate : 48.0 kHz

Frame rate : 31.250 FPS (1536 SPF)

Compression mode : Lossy

Stream size : 291 MiB (6%)

Title : iTunes

Language : Russian

Service kind : Complete Main

Default : Yes

Forced : Yes



Audio #2

ID : 3

Format : AC-3

Format/Info : Audio Coding 3

Commercial name : Dolby Digital

Codec ID : A_AC3

Duration : 1 h 45 min

Bit rate mode : Constant

Bit rate : 640 kb/s

Channel(s) : 6 channels

Channel layout : L R C LFE Ls Rs

Sampling rate : 48.0 kHz

Frame rate : 31.250 FPS (1536 SPF)

Compression mode : Lossy

Stream size : 485 MiB (10%)

Title : Original

Language : English

Service kind : Complete Main

Default : No

Forced : No



Text #1

ID : 4

Format : UTF-8

Codec ID : S_TEXT/UTF8

Codec ID/Info : UTF-8 Plain Text

Duration : 1 h 39 min

Bit rate : 91 b/s

Count of elements : 1452

Stream size : 66.8 KiB (0%)

Title : Full

Language : Russian

Default : No

Forced : No



Text #2

ID : 5

Format : UTF-8

Codec ID : S_TEXT/UTF8

Codec ID/Info : UTF-8 Plain Text

Duration : 1 h 39 min

Bit rate : 58 b/s

Count of elements : 1475

Stream size : 42.5 KiB (0%)

Title : Full

Language : English

Default : No

Forced : No



Menu

00:00:00.000 : it:Глава 01

00:08:40.750 : it:Глава 02

00:18:39.208 : it:Глава 03

00:27:14.208 : it:Глава 04

00:37:08.042 : it:Глава 05

00:44:45.583 : it:Глава 06

00:54:52.417 : it:Глава 07

01:03:24.750 : it:Глава 08

01:11:10.667 : it:Глава 09

01:19:24.500 : it:Глава 10

01:30:20.208 : it:Глава 11

01:38:32.417 : it:Глава 12



Релиз: Присоединяйся к:



Discussion

Comments 0

Post Your Comment

Files in this torrent

FILENAMESIZE
After.We.Collided.2020.BDRip.720p.seleZen.mkv4.8 GB

Alternative Torrents for 'After We Collided'.

TORRENT NAMEADDEDSIZESEEDSPEERSHEALTH
10/23/2020966 MB32297
11/29/2020972 MB30229
10/23/20201.8 GB273219
12/3/20202 GB21536
10/22/2020795 MB13159
10/22/20203.6 GB12361
12/22/2020695 MB764
10/22/20201.5 GB762
10/22/20203.6 GB4324
10/24/20206.8 GB4229
11/28/20201.3 GB2814
10/22/20201.4 GB222
10/25/2020850 MB1719
10/24/20201.4 GB170
10/22/20201.4 GB121