The LEGO Star Wars Holiday Special (2020) 1080p 5 1 - 2 0 X264 Phun Psyz

Torrent Details

The LEGO Star Wars Holiday Special (2020) 1080p 5 1 - 2 0 x264 Phun Psyz

NAME
The LEGO Star Wars Holiday Special (2020) 1080p 5 1 - 2 0 x264 Phun Psyz.torrent
CATEGORY
Movies
INFOHASH
d8543df8333301ce5e4e118da4d2e6072b90ba47
SIZE
756 MB in 1 file
ADDED
Uploaded on 28-11-2020 by our crawler pet called "Spidey".
SWARM
0 seeders & 0 peers
RATING
No votes yet.

Please login to vote for this torrent.


Description

www.imdb.com/title/tt12885438/



Rey leaves her friends to prepare for Life Day as she sets off on an adventure to gain a deeper knowledge of the Force. At a mysterious temple, she is hurled into a cross-timeline adventure. Will she make it back in time for Life Day?



Source: ROCCaT (Web)







Format                      : MPEG-4

Format profile              : Base Media / Version 2

Codec ID                    : mp42 (isom/iso2/avc1/mp41)

File size                   : 756 MiB

Duration                    : 44 min 57 s

Overall bit rate mode       : Variable

Overall bit rate            : 2 352 kb/s

Writing application         : HandBrake 1.3.3 2020061300



Video

ID                          : 1

Format                      : AVC

Format/Info                 : Advanced Video Codec

Format profile              : [email protected]

Format settings             : CABAC / 1 Ref Frames

Format settings, CABAC      : Yes

Format settings, Reference  : 1 frame

Codec ID                    : avc1

Codec ID/Info               : Advanced Video Coding

Duration                    : 44 min 57 s

Bit rate                    : 1 862 kb/s

Width                       : 1 920 pixels

Height                      : 1 080 pixels

Display aspect ratio        : 16:9

Frame rate mode             : Variable

Frame rate                  : 23.976 (24000/1001) FPS

Minimum frame rate          : 23.974 FPS

Maximum frame rate          : 23.981 FPS

Color space                 : YUV

Chroma subsampling          : 4:2:0

Bit depth                   : 8 bits

Scan type                   : Progressive

Bits/(Pixel*Frame)          : 0.037

Stream size                 : 599 MiB (79%)

Writing library             : x264 core 157 r2935 545de2f

Color primaries             : BT.709

Transfer characteristics    : BT.709

Matrix coefficients         : BT.709



Audio #1

ID                          : 2

Format                      : AC-3

Format/Info                 : Audio Coding 3

Commercial name             : Dolby Digital

Codec ID                    : ac-3

Duration                    : 44 min 57 s

Bit rate mode               : Constant

Bit rate                    : 320 kb/s

Channel(s)                  : 6 channels

Channel layout              : L R C LFE Ls Rs

Sampling rate               : 48.0 kHz

Frame rate                  : 31.250 FPS (1536 SPF)

Compression mode            : Lossy

Stream size                 : 103 MiB (14%)

Title                       : Surround

Language                    : English

Service kind                : Complete Main

Default                     : Yes



Audio #2

ID                          : 3

Format                      : AAC LC

Format/Info                 : Advanced Audio Codec Low Complexity

Codec ID                    : mp4a-40-2

Duration                    : 44 min 57 s

Bit rate mode               : Constant

Bit rate                    : 161 kb/s

Channel(s)                  : 2 channels

Channel layout              : L R

Sampling rate               : 48.0 kHz

Frame rate                  : 46.875 FPS (1024 SPF)

Compression mode            : Lossy

Stream size                 : 51.7 MiB (7%)

Title                       : Stereo

Language                    : English



Text

Language                    : English

Default                     : Yes

Forced                      : No

Language                    : Spanish

Language                    : Finnish

Language                    : French

Language                    : Italian

Language                    : Dutch

Language                    : Norwegian

Language                    : Portuguese

Language                    : Swedish

Language                    : Danish

Language                    : German

Language                    : Spanish

Default                     : No

Forced                      : No

Discussion

Comments 0

Post Your Comment

Files in this torrent

FILENAMESIZE
The LEGO Star Wars Holiday Special (2020) 1080p 5.1 - 2.0 x264 Phun Psyz.mp4756.4 MB

Alternative Torrents for 'LEGO Star Wars Holiday Special Phun Psyz'.

TORRENT NAMEADDEDSIZESEEDSPEERSHEALTH
11/28/2020756 MB00