Let Him Go 2020 2160p WEB-DL HDR

Torrent Details

Let Him Go 2020 2160p WEB-DL HDR

NAME
Let Him Go 2020 2160p WEB-DL HDR.torrent
CATEGORY
Movies
INFOHASH
3b7c5124cbc69b8fb8f464a0ced77d9c74d56f79
SIZE
12.4 GB in 1 file
ADDED
Uploaded on 01-12-2020 by our crawler pet called "Spidey".
SWARM
2 seeders & 0 peers
RATING
No votes yet.

Please login to vote for this torrent.


Description

Информация о фильме

Название: Кровные узы

Оригинальное название: Let Him Go

Год выхода: 2020

Жанр: триллер, драма, криминал



Режиссер: Томас Безуча



В ролях: Дайан Лэйн, Кевин Костнер, Лесли Мэнвилл, Кэйли Картер, Бу Бу Стюарт, Джеффри Донован, Уилл Бриттейн, Райан Брюс, Адам Стэффорд, Брэдли Страйкер



О фильме:

Бывший шериф Джордж Блэкледж вместе с супругой Маргарет наслаждается спокойной жизнью на ранчо в горах Монтаны. Трагическая гибель их сына навсегда разрушает размеренный уклад жизни благочестивой семьи. ​​​​​​​Теперь все, что у них осталось – это внук, который волей случая попал в руки жестокой и опасной семьи Уибой. Ради возвращения мальчика супруги готовы идти до конца.













Страна: США

Продолжительность: 01:54:01

Перевод: Любительский (многоголосый закадровый) [@[email protected]]





Файл

Кодек: H.265

Качество: WEB-DL-HEVC 2160p

Видео: MPEG-H HEVC, HDR, 3840x2160 (16:9), 23.976 fps, 14.8 Mb/s, 10 Bit

Аудио 1: AC3, 48.0 kHz, 2 ch, 192 kb/s | RUS

Аудио 2: E-AC3, 48.0 kHz, 6 ch, 640 kb/s | ENG

Субтитры: Английские





Рекламы нет | Сэмпл





MIGeneral

Unique ID : 211981526237384255965109276731798358420 (0x9F7A282AD81537799839F19052628994)

Complete name : Let.Him.Go.2020.2160p.WEB-DL.HDR.mkv

Format : Matroska

Format version : Version 4

File size : 12.4 GiB

Duration : 1 h 54 min

Overall bit rate : 15.6 Mb/s

Encoded date : UTC 2020-12-01 10:31:33

Writing application : mkvmerge v8.3.0 ('Over the Horizon') 64bit

Writing library : libebml v1.3.1 + libmatroska v1.4.2



Video

ID : 1

Format : HEVC

Format/Info : High Efficiency Video Coding

Format profile : Main [email protected]@Main

Codec ID : V_MPEGH/ISO/HEVC

Duration : 1 h 54 min

Bit rate : 14.8 Mb/s

Width : 3 840 pixels

Height : 2 160 pixels

Display aspect ratio : 16:9

Frame rate mode : Constant

Frame rate : 23.976 (24000/1001) FPS

Color space : YUV

Chroma subsampling : 4:2:0 (Type 2)

Bit depth : 10 bits

Bits/(Pixel*Frame) : 0.074

Stream size : 11.8 GiB (95%)

Default : Yes

Forced : No

Color range : Limited

Color primaries : BT.2020

Transfer characteristics : PQ

Matrix coefficients : BT.2020 non-constant

Maximum Content Light Level : 765 cd/m2

Maximum Frame-Average Light Level : 205 cd/m2



Audio #1

ID : 2

Format : AC-3

Format/Info : Audio Coding 3

Commercial name : Dolby Digital

Codec ID : A_AC3

Duration : 1 h 54 min

Bit rate mode : Constant

Bit rate : 192 kb/s

Channel(s) : 2 channels

Channel layout : L R

Sampling rate : 48.0 kHz

Frame rate : 31.250 FPS (1536 SPF)

Bit depth : 16 bits

Compression mode : Lossy

Stream size : 157 MiB (1%)

Title : MVO [@[email protected]]

Language : Russian

Service kind : Complete Main

Default : Yes

Forced : No



Audio #2

ID : 3

Format : E-AC-3

Format/Info : Enhanced AC-3

Commercial name : Dolby Digital Plus

Codec ID : A_EAC3

Duration : 1 h 54 min

Bit rate mode : Constant

Bit rate : 640 kb/s

Channel(s) : 6 channels

Channel layout : L R C LFE Ls Rs

Sampling rate : 48.0 kHz

Frame rate : 31.250 FPS (1536 SPF)

Compression mode : Lossy

Stream size : 522 MiB (4%)

Title : Original

Language : English

Service kind : Complete Main

Default : No

Forced : No



Text

ID : 4

Format : UTF-8

Codec ID : S_TEXT/UTF8

Codec ID/Info : UTF-8 Plain Text

Duration : 1 h 45 min

Bit rate : 41 b/s

Count of elements : 1110

Stream size : 32.4 KiB (0%)

Title : Full

Language : English

Default : No

Forced : NoСкриншоты

Discussion

Comments 0

Post Your Comment

Files in this torrent

FILENAMESIZE
Let.Him.Go.2020.2160p.WEB-DL.HDR.mkv12.4 GB

Alternative Torrents for 'Let Him Go HDR'.

TORRENT NAMEADDEDSIZESEEDSPEERSHEALTH
12/1/202012.4 GB20
12/14/20201.1 GB12
11/26/20208.2 GB00