After We Collided 2020 BDRip(AVC) 745Mb OlLanDGroup

Torrent Details

After We Collided 2020 BDRip(AVC) 745Mb<span style=color:#fc9c6d> OlLanDGroup</span>

NAME
After We Collided 2020 BDRip(AVC) 745Mb OlLanDGroup.torrent
CATEGORY
Movies
INFOHASH
28bc667f525328923044957d3511322d629b6e53
SIZE
744 MB in 1 file
ADDED
Uploaded on 02-12-2020 by our crawler pet called "Spidey".
SWARM
6 seeders & 0 peers
RATING
No votes yet.

Please login to vote for this torrent.


Description

«Может ли любовь быть сильнее прошлого?»



Информация о фильме

Название: После. Глава 2

Оригинальное название: After We Collided

Год выпуска: 2020

Жанр: Драма, мелодрама

Режиссер: Роджер Камбл

В ролях: Джозефин Лэнгфорд, Хиро Файнс-Тиффин, Луиза Ломбард, Дилан Спроус, Кэндис Кинг, Чарли Уэбер, Макс Рагоун, Сэлма Блэр, Шэйн Пол МакГи, Роб Эстес



О фильме:

Встреча с Хардином разделила её жизнь на до и после. Молодые и такие разные – от их страсти буквально разлетаются искры. Однако внезапно в жизни девушки появляется новый знакомый, который готов положить к её ногам весь мир…







Страна: США

Студия: CalMaple, Frayed Pages Entertainment

Продолжительность: 01:45:51

Перевод: Дублированный | iTunes



Файл

Формат: MKV

Качество: BDRip-AVC

Исходник: After.We.Collided.2020.BDREMUX.1080p.seleZen

Видео: 720x300 (2.40:1), 24 fps, x264 ~918 kbps avg, 0.177 bit/pixel

Звук: 48 kHz, HE-AAC, 2 ch, ~64 kbps avg

Субтитры: Русские (Full), английские (Full)



Релиз:



MediaInfo:General

Unique ID : 171837539177078132434005766699099253075 (0x8146B4CB4C846175E715C17B0B5E6953)

Complete name : D:OlLanDGroupAfter.We.Collided.2020.BDRip(AVC).745Mb.OlLanDGroup.mkv

Format : Matroska

Format version : Version 4

File size : 744 MiB

Duration : 1 h 45 min

Overall bit rate : 983 kb/s

Movie name : После. Глава 2 / After We Collided (2020) BDRip-AVC от OlLanDGroup#Skandar

Encoded date : UTC 2020-12-02 09:42:17

Writing application : mkvmerge v31.0.0 ('Dolores In A Shoestand') 64-bit

Writing library : libebml v1.3.6 + libmatroska v1.4.9

Cover : Yes

Attachments : cover.jpg



Video

ID : 1

Format : AVC

Format/Info : Advanced Video Codec

Format profile : [email protected]

Format settings : CABAC / 10 Ref Frames

Format settings, CABAC : Yes

Format settings, ReFrames : 10 frames

Codec ID : V_MPEG4/ISO/AVC

Duration : 1 h 45 min

Bit rate : 918 kb/s

Width : 720 pixels

Height : 300 pixels

Display aspect ratio : 2.40:1

Frame rate mode : Constant

Frame rate : 24.000 FPS

Color space : YUV

Chroma subsampling : 4:2:0

Bit depth : 8 bits

Scan type : Progressive

Bits/(Pixel*Frame) : 0.177

Stream size : 694 MiB (93%)

Title : После. Глава 2 / After We Collided (2020) BDRip-AVC от OlLanDGroup#Skandar

Writing library : x264 core 146 r2538 121396c

Encoding settings : cabac=1 / ref=10 / deblock=1:-3:-3 / analyse=0x3:0x133 / me=umh / subme=11 / psy=1 / psy_rd=0.95:0.05 / mixed_ref=1 / me_range=32 / chroma_me=1 / trellis=2 / 8x8dct=1 / cqm=0 / deadzone=21,11 / fast_pskip=0 / chroma_qp_offset=-3 / threads=6 / lookahead_threads=1 / sliced_threads=0 / nr=0 / decimate=0 / interlaced=0 / bluray_compat=0 / constrained_intra=0 / bframes=10 / b_pyramid=2 / b_adapt=2 / b_bias=0 / direct=3 / weightb=1 / open_gop=0 / weightp=2 / keyint=240 / keyint_min=24 / scenecut=40 / intra_refresh=0 / rc_lookahead=40 / rc=2pass / mbtree=1 / bitrate=918 / ratetol=1.0 / qcomp=0.60 / qpmin=0 / qpmax=69 / qpstep=4 / cplxblur=20.0 / qblur=0.5 / vbv_maxrate=50000 / vbv_bufsize=62500 / nal_hrd=none / filler=0 / ip_ratio=1.40 / aq=1:1.00

Language : Italian

Default : Yes

Forced : No



Audio

ID : 2

Format : AAC LC SBR

Format/Info : Advanced Audio Codec Low Complexity with Spectral Band Replication

Commercial name : HE-AAC

Format settings : Explicit

Codec ID : A_AAC-2

Duration : 1 h 45 min

Bit rate : 64.0 kb/s

Channel(s) : 2 channels

Channel layout : L R

Sampling rate : 48.0 kHz

Frame rate : 23.438 FPS (2048 SPF)

Compression mode : Lossy

Delay relative to video : 31 ms

Stream size : 48.5 MiB (7%)

Title : Dub | iTunes

Language : Russian

Default : Yes

Forced : No



Text #1

ID : 3

Format : UTF-8

Codec ID : S_TEXT/UTF8

Codec ID/Info : UTF-8 Plain Text

Duration : 1 h 39 min

Bit rate : 91 b/s

Count of elements : 1452

Stream size : 66.8 KiB (0%)

Title : Full

Language : Russian

Default : No

Forced : No



Text #2

ID : 4

Format : UTF-8

Codec ID : S_TEXT/UTF8

Codec ID/Info : UTF-8 Plain Text

Duration : 1 h 39 min

Bit rate : 58 b/s

Count of elements : 1475

Stream size : 42.5 KiB (0%)

Title : Full

Language : English

Default : No

Forced : No



Menu

00:00:00.000 : it:Глава 01

00:08:40.750 : it:Глава 02

00:18:39.208 : it:Глава 03

00:27:14.208 : it:Глава 04

00:37:08.042 : it:Глава 05

00:44:45.583 : it:Глава 06

00:54:52.417 : it:Глава 07

01:03:24.750 : it:Глава 08

01:11:10.667 : it:Глава 09

01:19:24.500 : it:Глава 10

01:30:20.208 : it:Глава 11

01:38:32.417 : it:Глава 12Скриншоты



Discussion

Comments 0

Post Your Comment

Files in this torrent

FILENAMESIZE
After.We.Collided.2020.BDRip(AVC).745Mb.OlLanDGroup.mkv744.5 MB

Alternative Torrents for 'After We Collided AVC Mb'.

There are no alternative torrents found.