The King Of Staten Island 2020 D BDRip 1080p SeleZen

Torrent Details


The King of Staten Island 2020 D BDRip 1080p<span style=color:#fc9c6d> seleZen</span>

NAME
The King of Staten Island 2020 D BDRip 1080p seleZen.torrent
CATEGORY
Movies
INFOHASH
53f9eb0a862803c3ae6acd7953d44d118fae9e2e
SIZE
20.9 GB in 1 file
ADDED
Uploaded on 04-12-2020 by our crawler pet called "Spidey".
SWARM
3 seeders & 0 peers
RATING
No votes yet.

Please login to vote for this torrent.


Description

Информация о фильме

Название: Король Стейтен-Айленда

Оригинальное название: The King of Staten Island

Год выхода: 2020

Жанр: Драма, комедия

Режиссер: Джудд Апатоу

В ролях: Пит Дэвидсон, Мариса Томей, Билл Бёрр, Бел Паули, Мод Апатоу, Стив Бушеми, Рики Велес, Мойзес Ариас, Лу Уилсон, Карли Аквилино







О фильме: 24-летний инфантил по имени Скотт живёт с мамой и младшей сестрой в нью-йоркском районе Стейтен-Айленд. С самого детства парень не может смириться со смертью отца-пожарного и теперь всё время проводит за курением травки и набиванием друзьям кривых татуировок. Когда сестра уезжает в колледж, а его мама впервые после смерти мужа начинает встречаться с мужчиной, тоже пожарным, Скотт решает, что такие перемены в жизни ему не нужны, и теперь он будет пытаться расстроить мамины отношения.



Страна: США

Студия: Apatow Productions, Perfect World Pictures, Universal Pictures

Продолжительность: 02:17:15

Перевод: Дублированный



Качество: BDRip 1080p

Видео: MPEG-4 AVC, 1920x804, 21.0 Mbit/s, 23.976 fps

Аудио #01: 48 kHz, AC3, 5.1, 384 Kbps | Дублированный | RUS |

Аудио #02: 48 kHz, AC3, 5.1, 448 Kbps | Оригинал | ENG |

Субтитры: Русские (Forced, Full), английские







MIGeneral

Unique ID : 219532307026434398345728695437168387108 (0xA5286267235958DC8EFF3ECD9E62A424)

Complete name : F:The.King.of.Staten.Island.2020.D.BDRip.1080p.seleZen.mkv

Format : Matroska

Format version : Version 4

File size : 20.9 GiB

Duration : 2 h 17 min

Overall bit rate : 21.8 Mb/s

Movie name : The King of Staten Island 2020 from селезень

Encoded date : UTC 2020-12-04 06:03:05

Writing application : mkvmerge v16.0.0 ('Protest') 64-bit

Writing library : libebml v1.3.5 + libmatroska v1.4.8



Video

ID : 1

Format : AVC

Format/Info : Advanced Video Codec

Format profile : [email protected]

Format settings : CABAC / 5 Ref Frames

Format settings, CABAC : Yes

Format settings, Reference : 5 frames

Codec ID : V_MPEG4/ISO/AVC

Duration : 2 h 17 min

Bit rate : 21.0 Mb/s

Width : 1 920 pixels

Height : 804 pixels

Display aspect ratio : 2.40:1

Frame rate mode : Constant

Frame rate : 23.976 (24000/1001) FPS

Color space : YUV

Chroma subsampling : 4:2:0

Bit depth : 8 bits

Scan type : Progressive

Bits/(Pixel*Frame) : 0.567

Stream size : 20.1 GiB (96%)

Title : MTeam

Writing library : x264 core 157 r2938 2b00a84 [email protected] Mod

Encoding settings : cabac=1 / ref=5 / deblock=1:-3:-3 / analyse=0x3:0x133 / me=umh / subme=10 / psy=1 / psy_rd=1.05:0.00 / mixed_ref=1 / me_range=32 / chroma_me=1 / trellis=2 / 8x8dct=1 / cqm=0 / deadzone=21,11 / fast_pskip=0 / chroma_qp_offset=-2 / threads=12 / lookahead_threads=2 / sliced_threads=0 / nr=0 / decimate=0 / interlaced=0 / bluray_compat=0 / constrained_intra=0 / bframes=8 / b_pyramid=2 / b_adapt=2 / b_bias=0 / direct=3 / weightb=1 / open_gop=0 / weightp=2 / keyint=250 / keyint_min=24 / scenecut=40 / intra_refresh=0 / rc_lookahead=250 / rc=crf / mbtree=0 / crf=16.8 / qcomp=0.60 / qpmin=0 / qpmax=69 / qpstep=4 / vbv_maxrate=62500 / vbv_bufsize=78125 / crf_max=0.0 / nal_hrd=none / filler=0 / ip_ratio=1.30 / pb_ratio=1.20 / aq=3:0.80

Language : English

Default : Yes

Forced : No

Color range : Limited

Color primaries : BT.709

Matrix coefficients : BT.709



Audio #1

ID : 2

Format : AC-3

Format/Info : Audio Coding 3

Commercial name : Dolby Digital

Codec ID : A_AC3

Duration : 2 h 17 min

Bit rate mode : Constant

Bit rate : 384 kb/s

Channel(s) : 6 channels

Channel layout : L R C LFE Ls Rs

Sampling rate : 48.0 kHz

Frame rate : 31.250 FPS (1536 SPF)

Compression mode : Lossy

Stream size : 377 MiB (2%)

Title : Dub

Language : Russian

Service kind : Complete Main

Default : Yes

Forced : Yes



Audio #2

ID : 3

Format : AC-3

Format/Info : Audio Coding 3

Commercial name : Dolby Digital

Codec ID : A_AC3

Duration : 2 h 17 min

Bit rate mode : Constant

Bit rate : 448 kb/s

Channel(s) : 6 channels

Channel layout : L R C LFE Ls Rs

Sampling rate : 48.0 kHz

Frame rate : 31.250 FPS (1536 SPF)

Compression mode : Lossy

Stream size : 440 MiB (2%)

Title : Original

Language : English

Service kind : Complete Main

Default : No

Forced : No



Text #1

ID : 4

Format : UTF-8

Codec ID : S_TEXT/UTF8

Codec ID/Info : UTF-8 Plain Text

Duration : 2 h 10 min

Bit rate : 0 b/s

Count of elements : 10

Stream size : 424 Bytes (0%)

Title : Forced

Language : Russian

Default : Yes

Forced : Yes



Text #2

ID : 5

Format : UTF-8

Codec ID : S_TEXT/UTF8

Codec ID/Info : UTF-8 Plain Text

Duration : 2 h 11 min

Bit rate : 177 b/s

Count of elements : 3354

Stream size : 170 KiB (0%)

Title : Full [FOCS]

Language : Russian

Default : No

Forced : No



Text #3

ID : 6

Format : UTF-8

Codec ID : S_TEXT/UTF8

Codec ID/Info : UTF-8 Plain Text

Duration : 2 h 17 min

Bit rate : 122 b/s

Count of elements : 3748

Stream size : 123 KiB (0%)

Title : SDH

Language : English

Default : No

Forced : No



Menu

00:00:00.000 : en:Capítulo 01

00:07:59.770 : en:Capítulo 02

00:15:21.795 : en:Capítulo 03

00:21:31.665 : en:Capítulo 04

00:30:29.953 : en:Capítulo 05

00:35:49.772 : en:Capítulo 06

00:43:32.276 : en:Capítulo 07

00:51:07.439 : en:Capítulo 08

00:58:17.452 : en:Capítulo 09

01:06:46.669 : en:Capítulo 10

01:11:39.920 : en:Capítulo 11

01:16:35.924 : en:Capítulo 12

01:21:36.933 : en:Capítulo 13

01:29:12.096 : en:Capítulo 14

01:34:21.864 : en:Capítulo 15

01:41:33.295 : en:Capítulo 16

01:46:17.245 : en:Capítulo 17

01:56:30.233 : en:Capítulo 18

02:04:11.026 : en:Capítulo 19

02:11:48.859 : en:Capítulo 20



Релиз от:



Discussion

Comments 0

Post Your Comment

Files in this torrent

FILENAMESIZE
The.King.of.Staten.Island.2020.D.BDRip.1080p.seleZen.mkv20.9 GB

Alternative Torrents for 'King of Staten Island'.

TORRENT NAMEADDEDSIZESEEDSPEERSHEALTH
6/12/20201.4 GB47120
8/14/20202.5 GB17639
6/12/20201.2 GB838
6/12/2020898 MB8211
6/12/20202.5 GB785
6/12/20204.8 GB583
8/14/20201.2 GB4715
6/12/20202.6 GB228
8/24/20201.4 GB160
11/10/20201.4 GB151
6/13/2020578 MB101
8/17/20205.1 GB90
8/24/20208.8 GB81
6/18/20201.5 GB80
6/12/20202.5 GB71