The King Of Staten Island 2020 BDRip 2.84GB X 264 MegaPeer

Torrent Details

The King of Staten Island 2020 BDRip 2.84GB x 264<span style=color:#fc9c6d> MegaPeer</span>

NAME
The King of Staten Island 2020 BDRip 2.84GB x 264 MegaPeer.torrent
CATEGORY
Movies
INFOHASH
0dca9b89593b08234d9db4494ddf7f7bedfe34fc
SIZE
2.8 GB in 1 file
ADDED
Uploaded on 04-12-2020 by our crawler pet called "Spidey".
SWARM
0 seeders & 0 peers
RATING
No votes yet.

Please login to vote for this torrent.


Description

Информация о фильме

Название: Король Стейтен-Айленда

Оригинальное название: The King of Staten Island

Год выхода: 2020

Жанр: Драма, комедия

Режиссер: Джадд Апатоу

В ролях: Пит Дэвидсон, Мариса Томей, Билл Бёрр, Бел Паули, Мод Апатоу, Стив Бушеми, Рики Велес, Мойзес Ариас, Лу Уилсон, Карли Аквилино, Энгус Костелло, Полин Шаламе, Джозеф Пол Кеннеди, Нина Хеллман, Кевин Корригэн



О фильме:

24-летний инфантил по имени Скотт живёт с мамой и младшей сестрой в нью-йоркском районе Стейтен-Айленд. С самого детства парень не может смириться со смертью отца-пожарного и теперь всё время проводит за курением травки и набиванием друзьям кривых татуировок. Когда сестра уезжает в колледж, а его мама впервые после смерти мужа начинает встречаться с мужчиной, тоже пожарным, Скотт решает, что такие перемены в жизни ему не нужны, и теперь он будет пытаться расстроить мамины отношения.







Страна: США

Студия: Apatow Productions, Perfect World (Beijing) Pictures Co., Universal Pictures

Продолжительность: 02:17:15

Перевод: Профессиональный (полное дублирование) |



Файл

Качество: BDRip-AVC

исходник: The.King.of.Staten.Island.2020.1080p.BluRay.REMUX.AVC.Atmos.TrueHD7.1-iFT

Формат: MKV

Кодек: MPEG-4 AVC

Видео: 1024x428 (2,40:1), 24 fps, MPEG-4 AVC ~ 2124 Kbps avg, 0.202 bit/pixel

Аудио: AC3, 48 kHz, 6 ch, ~384.00 kbps avg | русский | DUB

Аудио: AC3, 48 kHz, 6 ch, ~448.00 kbps avg | английский | Оригинал

Субтитры: Русские (Forced, Full (FOCS)), английские (SDH)



Релиз:



Инфо-файлОбщее

Уникальный идентификатор : 21529645357806510623225354624654955271 (0x103275786AAFD690DCFE1281DC28D307)

Полное имя : The.King.of.Staten.Island.2020.BDRip.2.84Gb.x.264.MegaPeer.mkv

Формат : Matroska

Версия формата : Version 4

Размер файла : 2,84 Гбайт

Продолжительность : 2 ч. 17 м.

Общий поток : 2 958 Кбит/сек

Название фильма : Король Стейтен-Айленда / The King of Staten Island (2020)

Дата кодирования : UTC 2020-12-04 10:42:13

Программа кодирования : mkvmerge v47.0.0 ('Black Flag') 64-bit

Библиотека кодирования : libebml v1.3.10 + libmatroska v1.5.2

Обложка : Yes

Attachments : cover.jpg



Видео

Идентификатор : 1

Формат : AVC

Формат/Информация : Advanced Video Codec

Профиль формата : [email protected]

Настройки формата : CABAC / 10 Ref Frames

Параметр CABAC формата : Да

Параметр RefFrames формата : 10 кадров

Идентификатор кодека : V_MPEG4/ISO/AVC

Продолжительность : 2 ч. 17 м.

Битрейт : 2 124 Кбит/сек

Ширина : 1 024 пикселя

Высота : 428 пикселей

Соотношение сторон : 2,40:1

Режим частоты кадров : Постоянный

Частота кадров : 23,976 кадра/сек

Цветовое пространство : YUV

Субдискретизация насыщенности : 4:2:0

Битовая глубина : 8 бит

Тип развёртки : Прогрессивная

Бит/(Пиксели*Кадры) : 0.202

Размер потока : 2,04 Гбайт (72%)

Заголовок : #stillet

Библиотека кодирования : x264 core 152 r2851bm ba24899

Настройки программы : cabac=1 / ref=10 / deblock=1:-2:-2 / analyse=0x3:0x113 / me=umh / subme=11 / psy=1 / psy_rd=1.00:0.15 / mixed_ref=1 / me_range=32 / chroma_me=1 / trellis=2 / 8x8dct=1 / cqm=0 / deadzone=21,11 / fast_pskip=0 / chroma_qp_offset=-3 / threads=8 / lookahead_threads=3 / sliced_threads=0 / nr=0 / decimate=0 / interlaced=0 / bluray_compat=0 / constrained_intra=0 / bframes=11 / b_pyramid=2 / b_adapt=2 / b_bias=0 / direct=3 / weightb=1 / open_gop=0 / weightp=2 / keyint=240 / keyint_min=23 / scenecut=40 / intra_refresh=0 / rc=2pass / mbtree=0 / bitrate=2124 / ratetol=1.0 / qcomp=0.60 / qpmin=0 / qpmax=69 / qpstep=4 / cplxblur=20.0 / qblur=0.5 / ip_ratio=1.40 / pb_ratio=1.30 / aq=1:1.00

Язык : English

Default : Да

Forced : Нет



Аудио #1

Идентификатор : 2

Формат : AC-3

Формат/Информация : Audio Coding 3

Коммерческое название : Dolby Digital

Идентификатор кодека : A_AC3

Продолжительность : 2 ч. 17 м.

Вид битрейта : Постоянный

Битрейт : 384 Кбит/сек

Каналы : 6 каналов

Channel layout : L R C LFE Ls Rs

Частота : 48,0 КГц

Частота кадров : 31,250 кадров/сек (1536 SPF)

Метод сжатия : С потерями

Размер потока : 377 Мбайт (13%)

Заголовок : DUB

Язык : Russian

Service kind : Complete Main

Default : Да

Forced : Да



Аудио #2

Идентификатор : 3

Формат : AC-3

Формат/Информация : Audio Coding 3

Коммерческое название : Dolby Digital

Идентификатор кодека : A_AC3

Продолжительность : 2 ч. 17 м.

Вид битрейта : Постоянный

Битрейт : 448 Кбит/сек

Каналы : 6 каналов

Channel layout : L R C LFE Ls Rs

Частота : 48,0 КГц

Частота кадров : 31,250 кадров/сек (1536 SPF)

Метод сжатия : С потерями

Размер потока : 440 Мбайт (15%)

Заголовок : Original

Язык : English

Service kind : Complete Main

Default : Нет

Forced : Нет



Текст #1

Идентификатор : 4

Формат : UTF-8

Идентификатор кодека : S_TEXT/UTF8

Идентификатор кодека/Информация : UTF-8 Plain Text

Продолжительность : 2 ч. 10 м.

Битрейт : 0 бит/сек

Count of elements : 10

Размер потока : 424 байт (0%)

Заголовок : Forced

Язык : Russian

Default : Да

Forced : Да



Текст #2

Идентификатор : 5

Формат : UTF-8

Идентификатор кодека : S_TEXT/UTF8

Идентификатор кодека/Информация : UTF-8 Plain Text

Продолжительность : 2 ч. 11 м.

Битрейт : 177 бит/сек

Count of elements : 3354

Размер потока : 170 Кбайт (0%)

Заголовок : Full [FOCS]

Язык : Russian

Default : Нет

Forced : Нет



Текст #3

Идентификатор : 6

Формат : UTF-8

Идентификатор кодека : S_TEXT/UTF8

Идентификатор кодека/Информация : UTF-8 Plain Text

Продолжительность : 2 ч. 17 м.

Битрейт : 122 бит/сек

Count of elements : 3748

Размер потока : 123 Кбайт (0%)

Заголовок : SDH

Язык : English

Default : Нет

Forced : Нет



Меню

00:00:00.000 : en:Capítulo 01

00:07:59.770 : en:Capítulo 02

00:15:21.795 : en:Capítulo 03

00:21:31.665 : en:Capítulo 04

00:30:29.953 : en:Capítulo 05

00:35:49.772 : en:Capítulo 06

00:43:32.276 : en:Capítulo 07

00:51:07.439 : en:Capítulo 08

00:58:17.452 : en:Capítulo 09

01:06:46.669 : en:Capítulo 10

01:11:39.920 : en:Capítulo 11

01:16:35.924 : en:Capítulo 12

01:21:36.933 : en:Capítulo 13

01:29:12.096 : en:Capítulo 14

01:34:21.864 : en:Capítulo 15

01:41:33.295 : en:Capítulo 16

01:46:17.245 : en:Capítulo 17

01:56:30.233 : en:Capítulo 18

02:04:11.026 : en:Capítulo 19

02:11:48.859 : en:Capítulo 20





Скриншоты

Discussion

Comments 0

Post Your Comment

Files in this torrent

FILENAMESIZE
The.King.of.Staten.Island.2020.BDRip.2.84Gb.x.264.MegaPeer.mkv2.8 GB

Alternative Torrents for 'King of Staten Island'.

TORRENT NAMEADDEDSIZESEEDSPEERSHEALTH
3/6/20211.1 GB196
12/9/202021.5 GB00
12/4/20201.5 GB00
12/4/20202.1 GB00
12/4/20202.8 GB00
12/4/202020.9 GB00
11/16/20206 GB00
11/15/20201.4 GB00
11/15/20205.6 GB00
11/12/20201003 MB00
11/10/20201.4 GB00
11/8/20206.2 GB00
11/6/202011.6 GB00
10/5/20201.1 GB00
10/3/20205.4 GB00