Over The Moon (2020) WEB-DL 2160p HDR

Torrent Details


Over the Moon (2020) WEB-DL 2160p HDR

NAME
Over the Moon (2020) WEB-DL 2160p HDR.torrent
CATEGORY
Anime
INFOHASH
1b306d06b480e4ed4a9c0092dce961076793ec59
SIZE
27.3 GB in 1 file
ADDED
Uploaded on 04-12-2020 by our crawler pet called "Spidey".
SWARM
0 seeders & 0 peers
RATING
No votes yet.

Please login to vote for this torrent.


Description

Информация о фильме

Название: Путешествие на Луну

Оригинальное название: Over the Moon

Год выхода: 2020

Жанр: мультфильм, мюзикл, фантастика, фэнтези, комедия, приключения, семейный







Режиссер: Глен Кин, Джон Карс





В ролях: Кэти Ан, Глен Кин, Брайсен Холл, Рути Энн Майлз, Джон Чо, Эди Итиока, Грег Ватанабэ, Элизабет Пан, Джеймс Таку Люн, Джозиа Д. Ли





О фильме:

История о девочке, которая строит ракету, чтобы отправиться на Луну и доказать своему отцу, что легендарная Богиня Луны существует.











Страна: Китай, США

Продолжительность: 01:40:17

Перевод: Профессиональный (дублированный) | [Невафильм по заказу Netflix]





Файл

Кодек: H.265

Качество: WEB-DL-HEVC 2160p

Видео: MPEG-H HEVC, HDR, 3840x2160 (16:9), 23.976 fps, 37.3 Mb/s, 10 Bit

Аудио 1: E-AC3, 48.0 kHz, 6 ch, 640 kb/s | RUS

Аудио 2: AC3, 48.0 kHz, 2 ch, 256 kb/s | UKR

Аудио 3: E-AC3 with Dolby Atmos, 48.0 kHz, 6 ch, 768 kb/s | ENG

Субтитры: Русские (форс., полные), украинские (полные), английские (полные)



Сэмпл



MIGeneral

Unique ID : 182352435570689204921829931448820608174 (0x892FCD364BFB3590BDCFE399AA24ACAE)

Complete name : Over.the.Moon.(2020).WEB-DL.2160p.HDR.mkv

Format : Matroska

Format version : Version 4

File size : 27.3 GiB

Duration : 1 h 40 min

Overall bit rate : 39.0 Mb/s

Encoded date : UTC 2020-12-04 16:15:08

Writing application : mkvmerge v8.3.0 ('Over the Horizon') 64bit

Writing library : libebml v1.3.1 + libmatroska v1.4.2



Video

ID : 1

Format : HEVC

Format/Info : High Efficiency Video Coding

Format profile : Main [email protected]@High

Codec ID : V_MPEGH/ISO/HEVC

Duration : 1 h 40 min

Bit rate : 37.3 Mb/s

Width : 3 840 pixels

Height : 2 160 pixels

Display aspect ratio : 16:9

Frame rate mode : Constant

Frame rate : 23.976 (24000/1001) FPS

Standard : Component

Color space : YUV

Chroma subsampling : 4:2:0

Bit depth : 10 bits

Bits/(Pixel*Frame) : 0.188

Stream size : 26.2 GiB (96%)

Default : Yes

Forced : No

Color range : Limited

Color primaries : BT.2020

Transfer characteristics : PQ

Matrix coefficients : BT.2020 non-constant



Audio #1

ID : 2

Format : E-AC-3

Format/Info : Enhanced AC-3

Commercial name : Dolby Digital Plus

Codec ID : A_EAC3

Duration : 1 h 40 min

Bit rate mode : Constant

Bit rate : 640 kb/s

Channel(s) : 6 channels

Channel layout : L R C LFE Ls Rs

Sampling rate : 48.0 kHz

Frame rate : 31.250 FPS (1536 SPF)

Compression mode : Lossy

Stream size : 459 MiB (2%)

Title : Невафильм

Language : Russian

Service kind : Complete Main

Default : Yes

Forced : No



Audio #2

ID : 3

Format : AC-3

Format/Info : Audio Coding 3

Commercial name : Dolby Digital

Codec ID : A_AC3

Duration : 1 h 40 min

Bit rate mode : Constant

Bit rate : 256 kb/s

Channel(s) : 2 channels

Channel layout : L R

Sampling rate : 48.0 kHz

Frame rate : 31.250 FPS (1536 SPF)

Bit depth : 16 bits

Compression mode : Lossy

Stream size : 184 MiB (1%)

Title : В одне рило

Language : Ukrainian

Service kind : Complete Main

Default : No

Forced : No



Audio #3

ID : 4

Format : E-AC-3 JOC

Format/Info : Enhanced AC-3 with Joint Object Coding

Commercial name : Dolby Digital Plus with Dolby Atmos

Codec ID : A_EAC3

Duration : 1 h 40 min

Bit rate mode : Constant

Bit rate : 768 kb/s

Channel(s) : 6 channels

Channel layout : L R C LFE Ls Rs

Sampling rate : 48.0 kHz

Frame rate : 31.250 FPS (1536 SPF)

Compression mode : Lossy

Stream size : 551 MiB (2%)

Language : English

Service kind : Complete Main

Default : No

Forced : No

Complexity index : 16

Number of dynamic objects : 15

Bed channel count : 1 channel

Bed channel configuration : LFE



Text #1

ID : 5

Format : UTF-8

Codec ID : S_TEXT/UTF8

Codec ID/Info : UTF-8 Plain Text

Duration : 1 h 34 min

Bit rate : 0 b/s

Count of elements : 4

Stream size : 171 Bytes (0%)

Title : Forced

Language : Russian

Default : Yes

Forced : No



Text #2

ID : 6

Format : UTF-8

Codec ID : S_TEXT/UTF8

Codec ID/Info : UTF-8 Plain Text

Duration : 1 h 34 min

Bit rate : 69 b/s

Count of elements : 1068

Stream size : 47.9 KiB (0%)

Title : Full

Language : Russian

Default : No

Forced : No



Text #3

ID : 7

Format : UTF-8

Codec ID : S_TEXT/UTF8

Codec ID/Info : UTF-8 Plain Text

Duration : 1 h 25 min

Bit rate : 75 b/s

Count of elements : 1067

Stream size : 47.7 KiB (0%)

Title : Full

Language : Ukrainian

Default : No

Forced : No



Text #4

ID : 8

Format : UTF-8

Codec ID : S_TEXT/UTF8

Codec ID/Info : UTF-8 Plain Text

Duration : 1 h 29 min

Bit rate : 67 b/s

Count of elements : 1352

Stream size : 44.1 KiB (0%)

Language : English

Default : No

Forced : NoСкриншоты

Discussion

Comments 0

Post Your Comment

Files in this torrent

FILENAMESIZE
Over.the.Moon.(2020).WEB-DL.2160p.HDR.mkv27.3 GB

Alternative Torrents for 'Over Moon HDR'.

TORRENT NAMEADDEDSIZESEEDSPEERSHEALTH
10/26/20201.5 GB10
12/4/202027.3 GB00