Train To Busan Presents Peninsula 2020 1080p BluRay X264-WoAT[rarbg]

Torrent Details

Train to Busan Presents Peninsula 2020 1080p BluRay x264-WoAT[rarbg]

NAME
Train to Busan Presents Peninsula 2020 1080p BluRay x264-WoAT[rarbg].torrent
CATEGORY
Movies
INFOHASH
55600643f9986505533f582ec3a2f39720041494
SIZE
7.4 GB in 4 files
ADDED
Uploaded on 06-12-2020 by our crawler pet called "Spidey".
SWARM
0 seeders & 1 peers
RATING
No votes yet.

Please login to vote for this torrent.


Description

帖子完整标题:釜山行2:半岛 Train.to.Busan.Presents.Peninsula.2020.1080p.BluRay.x264-WoAT 7.42GB  上集列车驶往釜山后,丧尸病毒瞬间全国爆发,4年后的韩国尸毒遍野,被全球孤立,沦为死城。所馀无几的生还者踏上最后一艘难民船,离开被世人遗弃的朝鲜半岛。退伍军人正锡(姜栋元 饰)和家人有幸登上难民船,但一上船便发现丧尸潜伏,幸得香港收容,这批韩国人才得以上岸,以「半岛难民」身分在香港重新生活。但正锡受不住金钱诱惑,加入了一个回国窃取巨额美金的行动。他和队友重返韩国,竟然发现仍有一班未受尸毒感染的人在挣扎求存,正锡决定带这班倖存者逃生,他们最后能否成功逃出尸杀半岛?◎获奖情况  第73届戛纳电影节 ?(2020)  入选过戛纳导演作品(提名)    第41届韩国电影青龙奖 ?(2020)  最佳导演(提名) 延尚昊  最佳女配角(提名) 李来  最佳美术(提名)  最佳照明(提名)  技术奖(提名)Video ID : 1 Format : AVC Format/Info : Advanced Video Codec Format profile : [email protected] Format settings : CABAC / 5 Ref Frames Format settings, CABAC : Yes Format settings, Reference frames : 5 frames Codec ID : V_MPEG4/ISO/AVC Duration : 1 h 55 min Bit rate : 6 748 kb/s Width : 1 920 pixels Height : 800 pixels Display aspect ratio : 2.40:1 Frame rate mode : Constant Frame rate : 24.000 FPS Color space : YUV Chroma subsampling : 4:2:0 Bit depth : 8 bits Scan type : Progressive Bits/(Pixel*Frame) : 0.183 Stream size : 5.46 GiB (74%) Writing library : x264 core 161 r3027 4121277 Encoding settings : cabac=1 / ref=5 / deblock=1:-3:-3 / analyse=0x3:0x133 / me=umh / subme=9 / psy=1 / psy_rd=1.00:0.00 / mixed_ref=1 / me_range=32 / chroma_me=1 / trellis=2 / 8x8dct=1 / cqm=0 / deadzone=21,11 / fast_pskip=0 / chroma_qp_offset=-2 / threads=16 / lookahead_threads=2 / sliced_threads=0 / nr=0 / decimate=0 / interlaced=0 / bluray_compat=0 / constrained_intra=0 / bframes=8 / b_pyramid=2 / b_adapt=2 / b_bias=0 / direct=3 / weightb=1 / open_gop=0 / weightp=2 / keyint=250 / keyint_min=24 / scenecut=40 / intra_refresh=0 / rc_lookahead=60 / rc=crf / mbtree=1 / crf=16.0 / qcomp=0.60 / qpmin=0 / qpmax=69 / qpstep=4 / ip_ratio=1.40 / aq=3:0.88 Default : Yes Forced : No Color range : Limited Matrix coefficients : BT.709 Audio ID : 2 Format : DTS XLL Format/Info : Digital Theater Systems Commercial name : DTS-HD Master Audio Codec ID : A_DTS Duration : 1 h 55 min Bit rate mode : Variable Bit rate : 2 408 kb/s Channel(s) : 6 channels Channel layout : C L R Ls Rs LFE Sampling rate : 48.0 kHz Frame rate : 93.750 FPS (512 SPF) Bit depth : 16 bits Compression mode : Lossless Stream size : 1.95 GiB (26%) Title : English Language : English Default : No Forced : No Text #1 ID : 3 Format : PGS Muxing mode : zlib Codec ID : S_HDMV/PGS Codec ID/Info : Picture based subtitle format used on BDs/HD-DVDs Duration : 1 h 54 min Bit rate : 15.0 kb/s Count of elements : 1629 Stream size : 12.3 MiB (0%) Title : English Language : English Default : No Forced : No Text #2 ID : 4 Format : UTF-8 Codec ID : S_TEXT/UTF8 Codec ID/Info : UTF-8 Plain Text Duration : 26 min 14 s Bit rate : 0 b/s Count of elements : 4 Stream size : 67.0 Bytes (0%) Title : English (forced) Language : English Default : Yes Forced : Yes Menu 00:00:00.000 : en:Chapter 01 00:09:45.500 : en:Chapter 02 00:18:59.500 : en:Chapter 03 00:27:25.416 : en:Chapter 04 00:39:40.500 : en:Chapter 05 00:46:31.916 : en:Chapter 06 00:58:44.458 : en:Chapter 07 01:08:44.666 : en:Chapter 08 01:18:08.291 : en:Chapter 09 01:29:02.916 : en:Chapter 10 01:39:40.875 : en:Chapter 11 01:51:12.458 : en:Chapter 12

Discussion

Comments 0

Post Your Comment

Files in this torrent

FILENAMESIZE
RARBG.txt30 B
RARBG_DO_NOT_MIRROR.exe99 B
train.to.busan.presents.peninsula.2020.1080p.bluray.x264-woat.mkv7.4 GB
train.to.busan.presents.peninsula.2020.1080p.bluray.x264-woat.nfo7.8 KB

Alternative Torrents for 'Train to Busan Presents Peninsula BluRay WoAT'.

TORRENT NAMEADDEDSIZESEEDSPEERSHEALTH
12/6/20207.4 GB01
12/6/20203.1 GB01