Mulan (2020) Dual [Hin+Eng] (1080p BluRay X265 10bit AC3) - [Musafirboy]

Torrent Details

Mulan (2020) Dual [Hin+Eng] (1080p BluRay x265 10bit AC3) - [Musafirboy]

NAME
Mulan (2020) Dual [Hin+Eng] (1080p BluRay x265 10bit AC3) - [Musafirboy].torrent
CATEGORY
Movies
INFOHASH
55961dd381f92d47bc71834f8dd6b1446a50f85c
SIZE
3 GB in 2 files
ADDED
Uploaded on 06-12-2020 by our crawler pet called "Spidey".
SWARM
3 seeders & 3 peers
RATING
No votes yet.

Please login to vote for this torrent.


Description















Mulan (2020) | BluRay | Hindi+English



IMDb (5.5/10)







































Source Information

Mulan.2020.2160p.UHD.BluRay.REMUX.HDR.HEVC.TrueHD.Atmos.7.1-FraMeSToR

Mulan.2020.1080p.WEB-DL.MulTi.DD+5.1.HEVC.H265.ESUB-Ranvijay-DUSIcTv (Hindi Audio)



















Media Information



General

Complete name : Mulan (2020) Dual [Hin+Eng] (1080p BluRay x265 10bit AC3) - [Musafirboy].mkv

Format : Matroska

Format version : Version 4

File size : 2.97 GiB

Duration : 1 h 55 min

Overall bit rate : 3 689 kb/s

Encoded date : UTC 2020-12-06 00:54:20



Video

Format : HEVC

Format/Info : High Efficiency Video Coding

Format profile : Main [email protected]@Main

Codec ID : V_MPEGH/ISO/HEVC

Duration : 1 h 55 min

Bit rate : 2 847 kb/s

Width : 1 920 pixels

Height : 800 pixels

Display aspect ratio : 2.40:1

Frame rate mode : Constant

Frame rate : 23.976 (24000/1001) FPS

Color space : YUV

Chroma subsampling : 4:2:0

Bit depth : 10 bits

Bits/(Pixel*Frame) : 0.077

Stream size : 2.29 GiB (77%)

Writing library : x265 3.2+9-971180b100f8:[Windows][GCC 9.2.0][64 bit] 10bit

Color range : Limited

Color primaries : BT.709

Transfer characteristics : BT.709

Matrix coefficients : BT.709



Audio #1

Format : AC-3

Format/Info : Audio Coding 3

Commercial name : Dolby Digital

Codec ID : A_AC3

Duration : 1 h 55 min

Bit rate mode : Constant

Bit rate : 384 kb/s

Channel(s) : 6 channels

Channel layout : L R C LFE Ls Rs

Sampling rate : 48.0 kHz

Frame rate : 31.250 FPS (1536 SPF)

Compression mode : Lossy

Stream size : 316 MiB (10%)

Language : Hindi

Default : Yes

Forced : No



Audio #2

Format : AC-3

Format/Info : Audio Coding 3

Commercial name : Dolby Digital

Codec ID : A_AC3

Duration : 1 h 55 min

Bit rate mode : Constant

Bit rate : 448 kb/s

Channel(s) : 6 channels

Channel layout : L R C LFE Ls Rs

Sampling rate : 48.0 kHz

Frame rate : 31.250 FPS (1536 SPF)

Compression mode : Lossy

Stream size : 369 MiB (12%)

Language : English

Default : No

Forced : No



Subtitle #1

Format : UTF-8

Codec ID : S_TEXT/UTF8

Codec ID/Info : UTF-8 Plain Text

Duration : 1 h 50 min

Bit rate : 36 b/s

Count of elements : 1150

Stream size : 29.5 KiB (0%)

Language : English

Default : Yes

Forced : No



Subtitle #2

Format : PGS

Muxing mode : zlib

Codec ID : S_HDMV/PGS

Codec ID/Info : Picture based subtitle format used on BDs/HD-DVDs

Duration : 1 h 50 min

Bit rate : 24.4 kb/s

Count of elements : 2300

Stream size : 19.3 MiB (1%)

Language : English

Default : No

Forced : No







Discussion

Comments 0

Post Your Comment

Files in this torrent

FILENAMESIZE
Encoded by Musafirboy.txt397 B
Mulan (2020) Dual [Hin+Eng] (1080p BluRay x265 10bit AC3) - [Musafirboy].mkv3 GB

Alternative Torrents for 'Mulan Dual HinEng BluRay bit Musafirboy'.

There are no alternative torrents found.