The New Mutants 2020 ITA-ENG Bluray 2160p X265-CYBER

Torrent Details

The New Mutants 2020 iTA-ENG Bluray 2160p x265-CYBER

NAME
The New Mutants 2020 iTA-ENG Bluray 2160p x265-CYBER.torrent
CATEGORY
Movies
INFOHASH
adb3210cde620d62a60a3e295446c3a9ec8a61ce
SIZE
18.5 GB in 1 file
ADDED
Uploaded on 08-12-2020 by our crawler pet called "Spidey".
SWARM
0 seeders & 1 peers
RATING
No votes yet.

Please login to vote for this torrent.


Description

DATI - TRAMA

Data di uscita: 02 settembre 2020
Genere: Azione, Horror, Fantascienza
Anno: 2020
Regia: Josh Boone
Attori: Maisie Williams, Anya Taylor-Joy, Charlie Heaton, Alice Braga, Henry Zaga, Blu Hunt, Happy Anderson, Mickey Gilmore, Colbi Gannett, Max Schochet, Thomas Kee
Paese: USA
Distribuzione: Walt Disney Pictures Italia / 20th Century Fox


Cinque giovani mutanti scoprono le loro abilità mentre si trovano rinchiusi in una struttura segreta contro la loro volontà. Cercheranno allora di sfuggire ai loro peccati del passato e di salvarsi.

IMMAGINI





REPORT

General
Unique ID : 280304788457219502797000362277581562458 (0xD2E0BD128FF5AB6823717F3FE5A3225A)
Complete name : F:The.New.Mutants.2020.iTA-ENG.Bluray.2160p.x265-CYBER.mkv
Format : Matroska
Format version : Version 4
File size : 18.5 GiB
Duration : 1 h 34 min
Overall bit rate : 28.1 Mb/s
Movie name : "ENJOY"
Encoded date : UTC 2020-12-05 17:18:07
Writing application : mkvmerge v45.0.0 ('Heaven in Pennies') 64-bit
Writing library : libebml v1.3.10 + libmatroska v1.5.2

Video
ID : 1
Format : HEVC
Format/Info : High Efficiency Video Coding
Format profile : Main [email protected]@High
HDR format : SMPTE ST 2086, HDR10 compatible
Codec ID : V_MPEGH/ISO/HEVC
Duration : 1 h 34 min
Bit rate : 25.2 Mb/s
Width : 3 840 pixels
Height : 2 072 pixels
Display aspect ratio : 1.85:1
Frame rate mode : Constant
Frame rate : 23.976 (24000/1001) FPS
Color space : YUV
Chroma subsampling : 4:2:0 (Type 2)
Bit depth : 10 bits
Bits/(Pixel*Frame) : 0.132
Stream size : 16.5 GiB (90%)
Title : UHDRip 2160p
Writing library : x265 3.4+6-g73f96ff39:[Windows][GCC 11.0.0][64 bit] 10bit
Encoding settings : cpuid=1111039 / frame-threads=6 / numa-pools=48,0 / wpp / no-pmode / no-pme / no-psnr / no-ssim / log-level=2 / input-csp=1 / input-res=3840x2072 / interlace=0 / total-frames=135319 / level-idc=51 / high-tier=1 / uhd-bd=0 / ref=4 / no-allow-non-conformance / repeat-headers / annexb / aud / hrd / info / hash=0 / no-temporal-layers / no-open-gop / min-keyint=23 / keyint=250 / gop-lookahead=0 / bframes=8 / b-adapt=2 / b-pyramid / bframe-bias=0 / rc-lookahead=40 / lookahead-slices=4 / scenecut=40 / hist-scenecut=0 / radl=0 / no-splice / no-intra-refresh / ctu=64 / min-cu-size=8 / no-rect / no-amp / max-tu-size=32 / tu-inter-depth=1 / tu-intra-depth=1 / limit-tu=0 / rdoq-level=2 / dynamic-rd=0.00 / no-ssim-rd / signhide / no-tskip / nr-intra=0 / nr-inter=0 / no-constrained-intra / no-strong-intra-smoothing / max-merge=3 / limit-refs=3 / limit-modes / me=3 / subme=5 / merange=57 / temporal-mvp / no-frame-dup / no-hme / weightp / no-weightb / no-analyze-src-pics / deblock=-3:-3 / no-sao / no-sao-non-deblock / rd=4 / selective-sao=0 / no-early-skip / rskip / no-fast-intra / no-tskip-fast / no-cu-lossless / no-b-intra / no-splitrd-skip / rdpenalty=0 / psy-rd=2.00 / psy-rdoq=1.00 / no-rd-refine / no-lossless / cbqpoffs=0 / crqpoffs=0 / rc=crf / crf=15.5 / qcomp=0.65 / qpstep=4 / stats-write=0 / stats-read=0 / vbv-maxrate=160000 / vbv-bufsize=160000 / vbv-init=0.9 / crf-max=0.0 / crf-min=0.0 / ipratio=1.40 / pbratio=1.30 / aq-mode=3 / aq-strength=1.00 / cutree / zone-count=0 / no-strict-cbr / qg-size=32 / no-rc-grain / qpmax=69 / qpmin=0 / no-const-vbv / sar=0 / overscan=0 / videoformat=5 / range=0 / colorprim=9 / transfer=16 / colormatrix=9 / chromaloc=1 / chromaloc-top=2 / chromaloc-bottom=2 / display-window=0 / master-display=G(13250,34500)B(7500,3000)R(34000,16000)WP(15635,16450)L(10000000,50) / cll=0,0 / min-luma=50 / max-luma=1000 / log2-max-poc-lsb=8 / vui-timing-info / vui-hrd-info / slices=1 / no-opt-qp-pps / no-opt-ref-list-length-pps / no-multi-pass-opt-rps / scenecut-bias=0.05 / hist-threshold=0.01 / no-opt-cu-delta-qp / no-aq-motion / hdr10 / hdr10-opt / no-dhdr10-opt / no-idr-recovery-sei / analysis-reuse-level=0 / analysis-save-reuse-level=0 / analysis-load-reuse-level=0 / scale-factor=0 / refine-intra=0 / refine-inter=0 / refine-mv=1 / refine-ctu-distortion=0 / no-limit-sao / ctu-info=0 / no-lowpass-dct / refine-analysis-type=0 / copy-pic=1 / max-ausize-factor=1.0 / no-dynamic-refine / no-single-sei / no-hevc-aq / no-svt / no-field / qp-adaptation-range=1.00 / no-scenecut-aware-qpconformance-window-offsets / right=0 / bottom=0 / decoder-max-rate=0
Language : English
Default : Yes
Forced : No
Color range : Limited
Color primaries : BT.2020
Transfer characteristics : PQ
Matrix coefficients : BT.2020 non-constant
Mastering display color primaries : Display P3
Mastering display luminance : min: 0.0050 cd/m2, max: 1000 cd/m2

Audio #1
ID : 2
Format : E-AC-3
Format/Info : Enhanced AC-3
Commercial name : Dolby Digital Plus
Format profile : Blu-ray Disc
Codec ID : A_EAC3
Duration : 1 h 34 min
Bit rate mode : Constant
Bit rate : 896 kb/s
Channel(s) : 8 channels
Channel layout : L R C LFE Ls Rs Lb Rb
Sampling rate : 48.0 kHz
Frame rate : 31.250 FPS (1536 SPF)
Compression mode : Lossy
Stream size : 603 MiB (3%)
Title : E-AC3 896Kbps 7.1 Channels RETAIL
Language : Italian
Service kind : Complete Main
Default : Yes
Forced : No

Audio #2
ID : 3
Format : AC-3
Format/Info : Audio Coding 3
Commercial name : Dolby Digital
Codec ID : A_AC3
Duration : 1 h 34 min
Bit rate mode : Constant
Bit rate : 512 kb/s
Channel(s) : 6 channels
Channel layout : L R C LFE Ls Rs
Sampling rate : 48.0 kHz
Frame rate : 31.250 FPS (1536 SPF)
Compression mode : Lossy
Stream size : 344 MiB (2%)
Title : AC3 512Kbps 5.1 Channels RETAIL
Language : Italian
Service kind : Complete Main
Default : No
Forced : No

Audio #3
ID : 4
Format : DTS
Format/Info : Digital Theater Systems
Codec ID : A_DTS
Duration : 1 h 34 min
Bit rate mode : Constant
Bit rate : 1 509 kb/s
Channel(s) : 6 channels
Channel layout : C L R Ls Rs LFE
Sampling rate : 48.0 kHz
Frame rate : 93.750 FPS (512 SPF)
Bit depth : 24 bits
Compression mode : Lossy
Stream size : 1 015 MiB (5%)
Language : English
Default : No
Forced : No

Text #1
ID : 5
Format : UTF-8
Codec ID : S_TEXT/UTF8
Codec ID/Info : UTF-8 Plain Text
Duration : 53 min 55 s
Bit rate : 1 b/s
Count of elements : 21
Stream size : 584 Bytes (0%)
Title : FORCED
Language : Italian
Default : Yes
Forced : No

Text #2
ID : 6
Format : UTF-8
Codec ID : S_TEXT/UTF8
Codec ID/Info : UTF-8 Plain Text
Duration : 1 h 33 min
Bit rate : 33 b/s
Count of elements : 994
Stream size : 23.0 KiB (0%)
Title : REGOLARI
Language : Italian
Default : No
Forced : No

Text #3
ID : 7
Format : UTF-8
Codec ID : S_TEXT/UTF8
Codec ID/Info : UTF-8 Plain Text
Duration : 1 h 26 min
Bit rate : 50 b/s
Count of elements : 1343
Stream size : 32.0 KiB (0%)
Title : NON UDENTI
Language : English
Default : No
Forced : No

Menu
00:00:00.000 : en:Chapter 1
00:02:39.951 : en:Chapter 2
00:08:07.737 : en:Chapter 3
00:10:53.862 : en:Chapter 4
00:14:33.039 : en:Chapter 5
00:17:23.918 : en:Chapter 6
00:19:53.067 : en:Chapter 7
00:23:41.879 : en:Chapter 8
00:27:54.590 : en:Chapter 9
00:30:30.078 : en:Chapter 10
00:33:26.588 : en:Chapter 11
00:39:36.791 : en:Chapter 12
00:43:12.965 : en:Chapter 13
00:47:53.287 : en:Chapter 14
00:50:35.157 : en:Chapter 15
00:52:12.254 : en:Chapter 16
00:55:28.825 : en:Chapter 17
00:57:13.055 : en:Chapter 18
01:00:17.113 : en:Chapter 19
01:02:37.754 : en:Chapter 20
01:06:36.367 : en:Chapter 21
01:11:12.101 : en:Chapter 22
01:13:44.462 : en:Chapter 23
01:15:07.878 : en:Chapter 24
01:18:57.107 : en:Chapter 25
01:21:52.366 : en:Chapter 26
01:24:32.276 : en:Chapter 27

GOOD DOWNLOAD

Discussion

Comments 0

Post Your Comment

Files in this torrent

FILENAMESIZE
The.New.Mutants.2020.iTA-ENG.Bluray.2160p.x265-CYBER.mkv18.5 GB

Alternative Torrents for 'Mutants ENG Bluray CYBER'.

TORRENT NAMEADDEDSIZESEEDSPEERSHEALTH
12/8/20209 GB01
12/8/202018.5 GB01