Mulan (2020) 1080p BluRay X264 Dual Audio [Hindi DD 5.1 - English DD 5.1] ESUB-Ranvijay - DUSIcTv

Torrent Details

Mulan (2020) 1080p BluRay x264 Dual Audio [Hindi DD 5.1 - English DD 5.1] ESUB-Ranvijay - DUSIcTv

NAME
Mulan (2020) 1080p BluRay x264 Dual Audio [Hindi DD 5.1 - English DD 5.1] ESUB-Ranvijay - DUSIcTv.torrent
CATEGORY
Movies
INFOHASH
444b92d9f1be054c3503c64e611e9f01ae8e973c
SIZE
4 GB in 2 files
ADDED
Uploaded on 08-12-2020 by our crawler pet called "Spidey".
SWARM
6 seeders & 5 peers
RATING
No votes yet.

Please login to vote for this torrent.


Description

Mulan (2020) 1080p BluRay x264 Dual Audio [Hindi DD5.1 - English DD5.1] ESUB-Ranvijay - DUSIcTv



General
Format                                   : Matroska
Format version                           : Version 4
File size                                : 4.00 GiB
Duration                                 : 1 h 55 min
Overall bit rate                         : 4 976 kb/s
Movie name                               : Mulan (2020) 1080p BluRay x264 Dual Audio [Hindi DD5.1 - English DD5.1] ESUB-Ranvijay - DUSIcTv

Video
ID                                       : 1
Format                                   : AVC
Format/Info                              : Advanced Video Codec
Format profile                           : [email protected]
Format settings                          : CABAC / 5 Ref Frames
Format settings, CABAC                   : Yes
Format settings, Reference frames        : 5 frames
Codec ID                                 : V_MPEG4/ISO/AVC
Duration                                 : 1 h 55 min
Bit rate                                 : 4 391 kb/s
Width                                    : 1 920 pixels
Height                                   : 800 pixels
Display aspect ratio                     : 2.40:1
Frame rate mode                          : Constant
Frame rate                               : 23.976 (24000/1001) FPS
Color space                              : YUV
Chroma subsampling                       : 4:2:0
Bit depth                                : 8 bits
Scan type                                : Progressive
Bits/(Pixel*Frame)                       : 0.119
Stream size                              : 3.53 GiB (88%)
Title                                    : ~Ranvijay~

Audio #1
ID                                       : 2
Format                                   : E-AC-3
Format/Info                              : Enhanced AC-3
Commercial name                          : Dolby Digital Plus
Codec ID                                 : A_EAC3
Duration                                 : 1 h 55 min
Bit rate mode                            : Constant
Bit rate                                 : 192 kb/s
Channel(s)                               : 6 channels
Channel layout                           : L R C LFE Ls Rs
Sampling rate                            : 48.0 kHz
Frame rate                               : 31.250 FPS (1536 SPF)
Compression mode                         : Lossy
Delay relative to video                  : 19 ms
Stream size                              : 158 MiB (4%)
Title                                    : ~Ranvijay~
Language                                 : Hindi
Service kind                             : Complete Main
Default                                  : Yes
Forced                                   : Yes

Audio #2
ID                                       : 3
Format                                   : AC-3
Format/Info                              : Audio Coding 3
Commercial name                          : Dolby Digital
Codec ID                                 : A_AC3
Duration                                 : 1 h 55 min
Bit rate mode                            : Constant
Bit rate                                 : 384 kb/s
Channel(s)                               : 6 channels
Channel layout                           : L R C LFE Ls Rs
Sampling rate                            : 48.0 kHz
Frame rate                               : 31.250 FPS (1536 SPF)
Compression mode                         : Lossy
Stream size                              : 316 MiB (8%)
Title                                    : ~Ranvijay~
Language                                 : English
Service kind                             : Complete Main
Default                                  : No
Forced                                   : No

Text
ID                                       : 4
Format                                   : PGS
Muxing mode                              : zlib
Codec ID                                 : S_HDMV/PGS
Codec ID/Info                            : Picture based subtitle format used on BDs/HD-DVDs
Duration                                 : 1 h 50 min
Bit rate                                 : 24.4 kb/s
Count of elements                        : 2300
Stream size                              : 19.3 MiB (0%)
Title                                    : ~Ranvijay~
Language                                 : English
Default                                  : Yes
Forced                                   : Yes

Menu
00:00:00.000                             : en:Chapter 1
00:04:44.117                             : en:Chapter 2
00:06:26.469                             : en:Chapter 3
00:09:29.152                             : en:Chapter 4
00:13:27.223                             : en:Chapter 5
00:20:51.584                             : en:Chapter 6
00:26:33.675                             : en:Chapter 7
00:29:03.992                             : en:Chapter 8
00:36:48.832                             : en:Chapter 9
00:41:41.708                             : en:Chapter 10
00:50:45.668                             : en:Chapter 11
00:57:19.061                             : en:Chapter 12
01:01:13.336                             : en:Chapter 13
01:11:22.820                             : en:Chapter 14
01:16:34.924                             : en:Chapter 15
01:22:11.552                             : en:Chapter 16
01:29:59.060                             : en:Chapter 17
01:34:59.819                             : en:Chapter 18
01:38:52.385                             : en:Chapter 19
01:44:40.399                             : en:Chapter 20










Discussion

Comments 0

Post Your Comment

Files in this torrent

FILENAMESIZE
Mulan (2020) 1080p BluRay x264 Dual Audio [Hindi DD5.1 - English DD5.1] ESUB-Ranvijay - DUSIcTv .mkv4 GB
Sample - Mulan (2020) 1080p BluRay x264 Dual Audio [Hindi DD5.1 - English DD5.1] ESUB-Ranvijay - DUSIcTv.mkv27.4 MB

Alternative Torrents for 'Mulan BluRay Dual Audio Hindi DD English DD . ESUBRanvijay DUSIcTv'.

There are no alternative torrents found.