The King Of Staten Island 2020 BDRip 1080p NNMClub

Torrent Details


The King of Staten Island 2020 BDRip 1080p NNMClub

NAME
The King of Staten Island 2020 BDRip 1080p NNMClub.torrent
CATEGORY
Movies
INFOHASH
f4cf866485d5239c356964c49d8823e88788039d
SIZE
21.5 GB in 1 file
ADDED
Uploaded on 09-12-2020 by our crawler pet called "Spidey".
SWARM
0 seeders & 0 peers
RATING
No votes yet.

Please login to vote for this torrent.


Description

Информация о фильме

Название: Король Стейтен-Айленда

Оригинальное название: The King of Staten Island

Год выхода: 2020

Жанр: Драма, комедия

Режиссер: Джадд Апатоу

В ролях: Пит Дэвидсон, Мариса Томей, Билл Бёрр, Бел Паули, Мод Апатоу, Стив Бушеми, Рики Велес, Мойзес Ариас, Лу Уилсон, Карли Аквилино



О фильме:

24-летний инфантил по имени Скотт живёт с мамой и младшей сестрой в нью-йоркском районе Стейтен-Айленд. С самого детства парень не может смириться со смертью отца-пожарного и теперь всё время проводит за курением травки и набиванием друзьям кривых татуировок. Когда сестра уезжает в колледж, а его мама впервые после смерти мужа начинает встречаться с мужчиной, тоже пожарным, Скотт решает, что такие перемены в жизни ему не нужны, и теперь он будет пытаться расстроить мамины отношения.







Страна: США

Студия: Apatow Productions, Perfect World Pictures, Universal Pictures

Продолжительность: 02:17:15

Перевод: Дублированный, профессиональный (многоголосый, закадровый), авторский (одноголосый)

Субтитры: Русские (forced, full), английские (full, SDH)



Релиз от: Heisenberg | NNMClub

Качество: BDRip 1080p

Видео: AVC/H.264, 1920x804, (2.40:1), 16 Mbps, 23.976 fps

Аудио 1: AC3, 6 ch, 384 Kbps - Русский (DUB)

Аудио 2: AC3, 6 ch, 448 Kbps - Русский (MVO, HDRezka Studio)

Аудио 3: AC3, 6 ch, 448 Kbps - Русский (MVO, Pazl Voice)

Аудио 4: DTS, 6 ch, 1509 Kbps - Русский (AVO, А. Карповский)

Аудио 5: DTS, 6 ch, 1509 Kbps - Русский (AVO, В. Котов)

Аудио 6: E-AC3, 8 ch, 1536 Kbps - Английский (Оригинал (E-AC3 DD+7.1))

Аудио 7: AC3, 6 ch, 448 Kbps - Английский (Оригинал (Core TrueHD))

Аудио 8: AC3, 2 ch, 192 Kbps - Английский (Commentary with director Judd Apatow and actor/co-writer Pete Davidso)



Внимание! Во всех дорожках кроме дубляжа присутствует ненормативная лексика.



MediaInfo:General

Unique ID : 221840467485054654198701344332702622374 (0xA6E4EB7FEB2987135C6E24DCDA1122A6)

Complete name : F:The.King.of.Staten.Island.2020.BDRip.1080p.NNMClub.mkv

Format : Matroska

Format version : Version 4

File size : 21.5 GiB

Duration : 2 h 17 min

Overall bit rate : 22.5 Mb/s

Movie name : The King of Staten Island (2020) | NNMClub

Encoded date : UTC 2020-12-09 12:56:57

Writing application : mkvmerge v51.0.0 ('I Wish') 64-bit

Writing library : libebml v1.4.0 + libmatroska v1.6.2

Cover : Yes

Attachments : Cover.jpg / x264.log



Video

ID : 1

Format : AVC

Format/Info : Advanced Video Codec

Format profile : [email protected]

Format settings : CABAC / 5 Ref Frames

Format settings, CABAC : Yes

Format settings, Reference : 5 frames

Codec ID : V_MPEG4/ISO/AVC

Duration : 2 h 17 min

Bit rate : 16.0 Mb/s

Width : 1 920 pixels

Height : 804 pixels

Display aspect ratio : 2.40:1

Frame rate mode : Constant

Frame rate : 23.976 (24000/1001) FPS

Color space : YUV

Chroma subsampling : 4:2:0

Bit depth : 8 bits

Scan type : Progressive

Bits/(Pixel*Frame) : 0.432

Stream size : 15.3 GiB (71%)

Title : The King of Staten Island (2020)

Writing library : x264 core 161 r3027 4121277

Encoding settings : cabac=1 / ref=5 / deblock=1:-3:-3 / analyse=0x3:0x133 / me=umh / subme=11 / psy=1 / psy_rd=1.00:0.00 / mixed_ref=1 / me_range=48 / chroma_me=1 / trellis=2 / 8x8dct=1 / cqm=0 / deadzone=21,11 / fast_pskip=0 / chroma_qp_offset=-2 / threads=12 / lookahead_threads=3 / sliced_threads=0 / nr=0 / decimate=0 / interlaced=0 / bluray_compat=0 / constrained_intra=0 / bframes=11 / b_pyramid=2 / b_adapt=2 / b_bias=0 / direct=3 / weightb=1 / open_gop=0 / weightp=2 / keyint=240 / keyint_min=23 / scenecut=40 / intra_refresh=0 / rc_lookahead=60 / rc=2pass / mbtree=0 / bitrate=16000 / ratetol=1.0 / qcomp=0.60 / qpmin=0 / qpmax=69 / qpstep=4 / cplxblur=20.0 / qblur=0.5 / vbv_maxrate=50000 / vbv_bufsize=62500 / nal_hrd=none / filler=0 / ip_ratio=1.40 / pb_ratio=1.30 / aq=3:0.80

Language : English

Default : Yes

Forced : No



Audio #1

ID : 2

Format : AC-3

Format/Info : Audio Coding 3

Commercial name : Dolby Digital

Codec ID : A_AC3

Duration : 2 h 17 min

Bit rate mode : Constant

Bit rate : 384 kb/s

Channel(s) : 6 channels

Channel layout : L R C LFE Ls Rs

Sampling rate : 48.0 kHz

Frame rate : 31.250 FPS (1536 SPF)

Compression mode : Lossy

Stream size : 377 MiB (2%)

Title : DUB

Language : Russian

Service kind : Complete Main

Default : Yes

Forced : No



Audio #2

ID : 3

Format : AC-3

Format/Info : Audio Coding 3

Commercial name : Dolby Digital

Codec ID : A_AC3

Duration : 2 h 17 min

Bit rate mode : Constant

Bit rate : 448 kb/s

Channel(s) : 6 channels

Channel layout : L R C LFE Ls Rs

Sampling rate : 48.0 kHz

Frame rate : 31.250 FPS (1536 SPF)

Compression mode : Lossy

Stream size : 440 MiB (2%)

Title : MVO, HDRezka Studio

Language : Russian

Service kind : Complete Main

Default : No

Forced : No



Audio #3

ID : 4

Format : AC-3

Format/Info : Audio Coding 3

Commercial name : Dolby Digital

Codec ID : A_AC3

Duration : 2 h 17 min

Bit rate mode : Constant

Bit rate : 448 kb/s

Channel(s) : 6 channels

Channel layout : L R C LFE Ls Rs

Sampling rate : 48.0 kHz

Frame rate : 31.250 FPS (1536 SPF)

Compression mode : Lossy

Stream size : 440 MiB (2%)

Title : MVO, Pazl Voice

Language : Russian

Service kind : Complete Main

Default : No

Forced : No



Audio #4

ID : 5

Format : DTS

Format/Info : Digital Theater Systems

Codec ID : A_DTS

Duration : 2 h 17 min

Bit rate mode : Constant

Bit rate : 1 509 kb/s

Channel(s) : 6 channels

Channel layout : C L R Ls Rs LFE

Sampling rate : 48.0 kHz

Frame rate : 93.750 FPS (512 SPF)

Bit depth : 24 bits

Compression mode : Lossy

Stream size : 1.45 GiB (7%)

Title : AVO, А. Карповский

Language : Russian

Default : No

Forced : No



Audio #5

ID : 6

Format : DTS

Format/Info : Digital Theater Systems

Codec ID : A_DTS

Duration : 2 h 17 min

Bit rate mode : Constant

Bit rate : 1 509 kb/s

Channel(s) : 6 channels

Channel layout : C L R Ls Rs LFE

Sampling rate : 48.0 kHz

Frame rate : 93.750 FPS (512 SPF)

Bit depth : 24 bits

Compression mode : Lossy

Stream size : 1.45 GiB (7%)

Title : AVO, В. Котов

Language : Russian

Default : No

Forced : No



Audio #6

ID : 7

Format : E-AC-3

Format/Info : Enhanced AC-3

Commercial name : Dolby Digital Plus

Format profile : Blu-ray Disc

Codec ID : A_EAC3

Duration : 2 h 17 min

Bit rate mode : Constant

Bit rate : 1 536 kb/s

Channel(s) : 8 channels

Channel layout : L R C LFE Ls Rs Lb Rb

Sampling rate : 48.0 kHz

Frame rate : 31.250 FPS (1536 SPF)

Compression mode : Lossy

Stream size : 1.47 GiB (7%)

Title : Original (E-AC3 DD+7.1)

Language : English

Service kind : Complete Main

Default : No

Forced : No



Audio #7

ID : 8

Format : AC-3

Format/Info : Audio Coding 3

Commercial name : Dolby Digital

Codec ID : A_AC3

Duration : 2 h 17 min

Bit rate mode : Constant

Bit rate : 448 kb/s

Channel(s) : 6 channels

Channel layout : L R C LFE Ls Rs

Sampling rate : 48.0 kHz

Frame rate : 31.250 FPS (1536 SPF)

Compression mode : Lossy

Stream size : 440 MiB (2%)

Title : Original (AC3)

Language : English

Service kind : Complete Main

Default : No

Forced : No



Audio #8

ID : 9

Format : AC-3

Format/Info : Audio Coding 3

Commercial name : Dolby Digital

Codec ID : A_AC3

Duration : 2 h 17 min

Bit rate mode : Constant

Bit rate : 192 kb/s

Channel(s) : 2 channels

Channel layout : L R

Sampling rate : 48.0 kHz

Frame rate : 31.250 FPS (1536 SPF)

Compression mode : Lossy

Stream size : 188 MiB (1%)

Title : Commentary with director Judd Apatow and actor/co-writer Pete Davidso

Language : English

Service kind : Complete Main

Default : No

Forced : No



Text #1

ID : 10

Format : UTF-8

Codec ID : S_TEXT/UTF8

Codec ID/Info : UTF-8 Plain Text

Duration : 2 h 10 min

Bit rate : 0 b/s

Count of elements : 10

Stream size : 424 Bytes (0%)

Title : Forced

Language : Russian

Default : Yes

Forced : No



Text #2

ID : 11

Format : UTF-8

Codec ID : S_TEXT/UTF8

Codec ID/Info : UTF-8 Plain Text

Duration : 2 h 11 min

Bit rate : 177 b/s

Count of elements : 3354

Stream size : 170 KiB (0%)

Title : Full [FOCS]

Language : Russian

Default : No

Forced : No



Text #3

ID : 12

Format : UTF-8

Codec ID : S_TEXT/UTF8

Codec ID/Info : UTF-8 Plain Text

Duration : 2 h 9 min

Bit rate : 104 b/s

Count of elements : 2626

Stream size : 99.8 KiB (0%)

Title : Full

Language : English

Default : No

Forced : No



Text #4

ID : 13

Format : UTF-8

Codec ID : S_TEXT/UTF8

Codec ID/Info : UTF-8 Plain Text

Duration : 2 h 12 min

Bit rate : 109 b/s

Count of elements : 2795

Stream size : 106 KiB (0%)

Title : SDH

Language : English

Default : No

Forced : No



Menu

00:00:00.000 : en:Chapter 01

00:07:59.771 : en:Chapter 02

00:15:21.796 : en:Chapter 03

00:21:31.665 : en:Chapter 04

00:30:29.953 : en:Chapter 05

00:35:49.773 : en:Chapter 06

00:43:32.276 : en:Chapter 07

00:51:07.439 : en:Chapter 08

00:58:17.452 : en:Chapter 09

01:06:46.669 : en:Chapter 10

01:11:39.921 : en:Chapter 11

01:16:35.925 : en:Chapter 12

01:21:36.934 : en:Chapter 13

01:29:12.097 : en:Chapter 14

01:34:21.865 : en:Chapter 15

01:41:33.296 : en:Chapter 16

01:46:17.246 : en:Chapter 17

01:56:30.233 : en:Chapter 18

02:04:11.027 : en:Chapter 19

02:11:48.859 : en:Chapter 20x264 log:x264 [info]: profile High, level 4.1, 4:2:0, 8-bit

x264 [info]: frame I:1420 Avg QP:14.48 size:298059

x264 [info]: frame P:35836 Avg QP:16.30 size:130156

x264 [info]: frame B:160196 Avg QP:18.43 size: 71022

x264 [info]: consecutive B-frames: 1.3% 0.8% 3.7% 5.5% 12.9% 59.3% 8.4% 1.4% 2.2% 2.0% 1.7% 0.8%

x264 [info]: mb I I16..4: 7.4% 81.3% 11.3%

x264 [info]: mb P I16..4: 3.3% 31.6% 1.2% P16..4: 19.3% 29.0% 13.9% 1.6% 0.1% skip: 0.1%

x264 [info]: mb B I16..4: 2.0% 5.8% 0.2% B16..8: 40.8% 26.4% 6.1% direct: 9.7% skip: 9.0% L0:48.1% L1:39.9% BI:12.0%

x264 [info]: 8x8 transform intra:79.7% inter:64.0%

x264 [info]: direct mvs spatial:99.2% temporal:0.8%

x264 [info]: coded y,uvDC,uvAC intra: 82.0% 95.2% 76.4% inter: 61.8% 56.5% 13.0%

x264 [info]: i16 v,h,dc,p: 94% 1% 3% 2%

x264 [info]: i8 v,h,dc,ddl,ddr,vr,hd,vl,hu: 8% 7% 12% 10% 14% 12% 12% 11% 13%

x264 [info]: i4 v,h,dc,ddl,ddr,vr,hd,vl,hu: 43% 4% 12% 6% 8% 8% 7% 6% 6%

x264 [info]: i8c dc,h,v,p: 56% 17% 15% 13%

x264 [info]: Weighted P-Frames: Y:1.3% UV:0.8%

x264 [info]: ref P L0: 47.4% 5.2% 24.9% 13.7% 8.7% 0.1% 0.0%

x264 [info]: ref B L0: 69.5% 21.3% 7.5% 1.7%

x264 [info]: ref B L1: 91.4% 8.6%

x264 [info]: kb/s:15994.34Доп. информация:За авторские озвучки большое спасибо TeamHD.

За оригинал Dolby Digital Plus 7.1 и корректные SDH сабы большое спасибо Mocunaman.Скриншоты

Discussion

Comments 0

Post Your Comment

Files in this torrent

FILENAMESIZE
The.King.of.Staten.Island.2020.BDRip.1080p.NNMClub.mkv21.5 GB

Alternative Torrents for 'King of Staten Island NNMClub'.

TORRENT NAMEADDEDSIZESEEDSPEERSHEALTH
12/9/202021.5 GB00