Mulan 2020 X264 720p Esub BluRay Dual Audio English Hindi GOPI SAHI

Torrent Details

Mulan 2020 x264 720p Esub BluRay Dual Audio English Hindi GOPI SAHI

NAME
Mulan 2020 x264 720p Esub BluRay Dual Audio English Hindi GOPI SAHI.torrent
CATEGORY
Movies
INFOHASH
b7104a0d0d857fda24919183f64a1a6e736add05
SIZE
908 MB in 1 file
ADDED
Uploaded on 10-12-2020 by our crawler pet called "Spidey".
SWARM
11 seeders & 5 peers
RATING
No votes yet.

Please login to vote for this torrent.


Description

https://www.gopisahi.ml/



Mulan 2020 x264 720p Esub BluRay Dual Audio English Hindi GOPI SAHI

Format : Matroska
Format version : Version 4
File size : 908 MiB
Duration : 1 h 55 min
Overall bit rate : 1 102 kb/s
Movie name : Mulan 2020 GOPI SAHI
Encoded date : UTC 2020-12-05 16:26:43

Video
ID : 1
Format : AVC
Format/Info : Advanced Video Codec
Format profile : [email protected]
Format settings : CABAC / 5 Ref Frames
Format settings, CABAC : Yes
Format settings, Reference fra : 5 frames
Codec ID : V_MPEG4/ISO/AVC
Duration : 1 h 55 min
Bit rate : 899 kb/s
Width : 1 280 pixels
Height : 536 pixels
Display aspect ratio : 2.40:1
Frame rate mode : Constant
Frame rate : 23.976 (24000/1001) FPS
Color space : YUV
Chroma subsampling : 4:2:0
Bit depth : 8 bits
Scan type : Progressive
Bits/(Pixel*Frame) : 0.055
Stream size : 740 MiB (82%)
Title : GOPI SAHI
Writing library : x264 core 157 r2935 545de2f

Audio #1
ID : 2
Format : AAC LC
Format/Info : Advanced Audio Codec Low Complexity
Codec ID : A_AAC-2
Duration : 1 h 55 min
Bit rate : 96.0 kb/s
Channel(s) : 2 channels
Channel layout : L R
Sampling rate : 48.0 kHz
Frame rate : 46.875 FPS (1024 SPF)
Compression mode : Lossy
Delay relative to video : -13 ms
Stream size : 79.3 MiB (9%)
Title : GOPI SAHI
Language : Hindi
Default : Yes
Forced : No

Audio #2
ID : 3
Format : AAC LC
Format/Info : Advanced Audio Codec Low Complexity
Codec ID : A_AAC-2
Duration : 1 h 55 min
Bit rate : 96.0 kb/s
Channel(s) : 2 channels
Channel layout : L R
Sampling rate : 48.0 kHz
Frame rate : 46.875 FPS (1024 SPF)
Compression mode : Lossy
Delay relative to video : -21 ms
Stream size : 79.4 MiB (9%)
Title : GOPI SAHI
Language : English
Default : No
Forced : No

Text
ID : 4
Format : PGS
Muxing mode : zlib
Codec ID : S_HDMV/PGS
Codec ID/Info : Picture based subtitle format used on BDs/HD-DVDs
Duration : 1 h 50 min
Bit rate : 24.4 kb/s
Count of elements : 2300
Stream size : 19.3 MiB (2%)
Title : GOPI SAHI
Language : English
Default : No
Forced : No

Menu
00:00:00.000 : :Chapter 1
00:04:44.117 : :Chapter 2
00:06:26.678 : :Chapter 3
00:09:29.152 : :Chapter 4
00:13:27.223 : :Chapter 5
00:20:51.625 : :Chapter 6
00:26:33.675 : :Chapter 7
00:29:03.992 : :Chapter 8
00:36:48.873 : :Chapter 9
00:41:41.708 : :Chapter 10
00:50:45.668 : :Chapter 11
00:57:19.144 : :Chapter 12
01:01:13.336 : :Chapter 13
01:11:22.820 : :Chapter 14
01:16:34.924 : :Chapter 15
01:22:11.552 : :Chapter 16
01:29:59.060 : :Chapter 17
01:34:59.819 : :Chapter 18
01:38:52.385 : :Chapter 19
01:44:40.483 : :Chapter 20





Discussion

Comments 0

Post Your Comment

Files in this torrent

FILENAMESIZE
Mulan 2020 x264 720p Esub BluRay Dual Audio English Hindi GOPI SAHI.mkv907.7 MB

Alternative Torrents for 'Mulan Esub BluRay Dual Audio English Hindi GOPI SAHI'.

TORRENT NAMEADDEDSIZESEEDSPEERSHEALTH
12/10/2020908 MB115