High School Musical The Musical The Holiday Special 2020 1080p DSNP WEBRip DDP5.1 Atmos X264-NOGRP

Torrent Details

High School Musical The Musical The Holiday Special 2020 1080p DSNP WEBRip DDP5.1 Atmos x264<span style=color:#fc9c6d>-NOGRP</span>

NAME
High School Musical The Musical The Holiday Special 2020 1080p DSNP WEBRip DDP5.1 Atmos x264-NOGRP.torrent
CATEGORY
Movies
INFOHASH
02b09c0501ab243d8597866632cb3ddf35447821
SIZE
2.9 GB in 2 files
ADDED
Uploaded on 13-12-2020 by our crawler pet called "Spidey".
SWARM
0 seeders & 0 peers
RATING
No votes yet.

Please login to vote for this torrent.


Description

帖子完整标题:歌舞青春音乐剧:假日特别集 High.School.Musical.The.Musical.The.Holiday.Special.2020.1080p.DSNP.WEBRip.DDP5.1.Atmos.x264-NOGRP 2.87GBFormat settings : CABAC / 4 Ref FramesFormat settings, CABAC : YesFormat settings, Reference frames : 4 framesCodec ID : V_MPEG4/ISO/AVCDuration : 44 min 33 sBit rate mode : VariableBit rate : 8 462 kb/sMaximum bit rate : 12.7 Mb/sWidth : 1 920 pixelsHeight : 1 080 pixelsDisplay aspect ratio : 16:9Frame rate mode : ConstantFrame rate : 23.976 (24000/1001/189150) FPSColor space : YUVChroma subsampling : 4:2:0Bit depth : 8 bitsScan type : ProgressiveBits/(Pixel*Frame) : 0.170Stream size : 2.63 GiB (92%)Default : YesForced : NoColor range : LimitedColor primaries : BT.709Transfer characteristics : BT.709Matrix coefficients : BT.709AudioID : 2Format : E-AC-3 JOCFormat/Info : Enhanced AC-3 with Joint Object CodingCommercial name : Dolby Digital Plus with Dolby AtmosCodec ID : A_EAC3Duration : 44 min 33 sBit rate mode : ConstantBit rate : 768 kb/sChannel(s) : 6 channelsChannel layout : L R C LFE Ls RsSampling rate : 48.0 kHzFrame rate : 31.250 FPS (1536 SPF)Compression mode : LossyStream size : 245 MiB (8%)Language : EnglishService kind : Complete MainDefault : YesForced : NoComplexity index : 16Number of dynamic objects : 15Bed channel count : 1 channelBed channel configuration : LFEText #1ID : 3Format : UTF-8Codec ID : S_TEXT/UTF8Codec ID/Info : UTF-8 Plain TextDuration : 44 min 25 sBit rate : 91 b/sCount of elements : 692Stream size : 29.9 KiB (0%)Title : SDHLanguage : EnglishDefault : NoForced : NoText #2ID : 4Format : UTF-8Codec ID : S_TEXT/UTF8Codec ID/Info : UTF-8 Plain TextDuration : 44 min 30 sBit rate : 50 b/sCount of elements : 400Stream size : 16.5 KiB (0%)Language : GermanDefault : NoForced : NoText #3ID : 5Format : UTF-8Codec ID : S_TEXT/UTF8Codec ID/Info : UTF-8 Plain TextDuration : 44 min 30 sBit rate : 42 b/sCount of elements : 400Stream size : 13.8 KiB (0%)Language : FinnishDefault : NoForced : NoText #4ID : 6Format : UTF-8Codec ID : S_TEXT/UTF8Codec ID/Info : UTF-8 Plain TextDuration : 44 min 30 sBit rate : 50 b/sCount of elements : 397Stream size : 16.5 KiB (0%)Language : FrenchDefault : NoForced : NoText #5ID : 7Format : UTF-8Codec ID : S_TEXT/UTF8Codec ID/Info : UTF-8 Plain TextDuration : 44 min 30 sBit rate : 47 b/sCount of elements : 408Stream size : 15.3 KiB (0%)Language : ItalianDefault : NoForced : NoText #6ID : 8Format : UTF-8Codec ID : S_TEXT/UTF8Codec ID/Info : UTF-8 Plain TextDuration : 44 min 30 sBit rate : 42 b/sCount of elements : 299Stream size : 13.7 KiB (0%)Language : DutchDefault : NoForced : NoText #7ID : 9Format : UTF-8Codec ID : S_TEXT/UTF8Codec ID/Info : UTF-8 Plain TextDuration : 44 min 30 sBit rate : 46 b/sCount of elements : 407Stream size : 15.1 KiB (0%)Language : NorwegianDefault : NoForced : NoText #8ID : 10Format : UTF-8Codec ID : S_TEXT/UTF8Codec ID/Info : UTF-8 Plain TextDuration : 44 min 30 sBit rate : 42 b/sCount of elements : 402Stream size : 14.0 KiB (0%)Language : PolishDefault : NoForced : NoText #9ID : 11Format : UTF-8Codec ID : S_TEXT/UTF8Codec ID/Info : UTF-8 Plain TextDuration : 44 min 30 sBit rate : 49 b/sCount of elements : 408Stream size : 16.2 KiB (0%)Language : PortugueseDefault : NoForced : NoText #10ID : 12Format : UTF-8Codec ID : S_TEXT/UTF8Codec ID/Info : UTF-8 Plain TextDuration : 44 min 30 sBit rate : 48 b/sCount of elements : 407Stream size : 16.0 KiB (0%)Language : SpanishDefault : NoForced : NoText #11ID : 13Format : UTF-8Codec ID : S_TEXT/UTF8Codec ID/Info : UTF-8 Plain TextDuration : 44 min 30 sBit rate : 49 b/sCount of elements : 404Stream size : 16.2 KiB (0%)Language : SwedishDefault : NoForced : NoText #12ID : 14Format : UTF-8Codec ID : S_TEXT/UTF8Codec ID/Info : UTF-8 Plain TextDuration : 44 min 29 sBit rate : 36 b/sCount of elements : 236Stream size : 11.9 KiB (0%)Language : DanishDefault : NoForced : No

Files in this torrent

FILENAMESIZE
High.School.Musical.The.Musical.The.Holiday.Special.2020.1080p.DSNP.WEBRip.DDP5.1.Atmos.x264-NOGRP.mkv2.9 GB
RARBG.txt31 B

Alternative Torrents for 'High School Musical Musical Holiday Special DSNP DDP. Atmos'.

There are no alternative torrents found.