Teenage Mutant Ninja Turtles Out Of The Shadows 2016 UHD 2160p HDR BluRay Atmos 7 1 HEVC-DDR

Torrent Details

Teenage Mutant Ninja Turtles Out of the Shadows 2016 UHD 2160p HDR BluRay Atmos 7 1 HEVC-DDR

NAME
Teenage Mutant Ninja Turtles Out of the Shadows 2016 UHD 2160p HDR BluRay Atmos 7 1 HEVC-DDR.torrent
CATEGORY
Movies
INFOHASH
f4930c14bf1616dae8a079bd197adf7cb96b8631
SIZE
21.7 GB in 1 file
ADDED
Uploaded on 13-12-2020 by our crawler pet called "Spidey".
SWARM
0 seeders & 0 peers
RATING
No votes yet.

Please login to vote for this torrent.


Description













General

Format                                   : Matroska

Format version                           : Version 4

File size                                : 21.7 GiB

Duration                                 : 1 h 52 min

Overall bit rate mode                    : Variable

Overall bit rate                         : 27.7 Mb/s

Encoded date                             : UTC 2020-12-09 12:20:36

Writing application                      : mkvmerge v51.0.0 ('I Wish') 64-bit

Writing library                          : libebml v1.4.0 + libmatroska v1.6.2



Video

ID                                       : 1

Format                                   : HEVC

Format/Info                              : High Efficiency Video Coding

Format profile                           : Main [email protected]@High

HDR format                               : SMPTE ST 2086, HDR10 compatible

Codec ID                                 : V_MPEGH/ISO/HEVC

Duration                                 : 1 h 52 min

Bit rate                                 : 21.9 Mb/s

Width                                    : 3 840 pixels

Height                                   : 1 600 pixels

Display aspect ratio                     : 2.40:1

Frame rate mode                          : Constant

Frame rate                               : 23.976 (24000/1001) FPS

Color space                              : YUV

Chroma subsampling                       : 4:2:0 (Type 2)

Bit depth                                : 10 bits

Bits/(Pixel*Frame)                       : 0.148

Stream size                              : 17.1 GiB (79%)

Color range                              : Limited

Color primaries                          : BT.2020

Transfer characteristics                 : PQ

Matrix coefficients                      : BT.2020 non-constant

Mastering display color primaries        : Display P3

Mastering display luminance              : min: 0.0050 cd/m2, max: 1000 cd/m2



Audio #1

ID                                       : 2

Format                                   : MLP FBA 16-ch

Format/Info                              : Meridian Lossless Packing FBA with 16-channel presentation

Commercial name                          : Dolby TrueHD with Dolby Atmos

Codec ID                                 : A_TRUEHD

Duration                                 : 1 h 52 min

Bit rate mode                            : Variable

Bit rate                                 : 5 080 kb/s

Maximum bit rate                         : 8 040 kb/s

Channel(s)                               : 8 channels

Channel layout                           : L R C LFE Ls Rs Lb Rb

Sampling rate                            : 48.0 kHz

Frame rate                               : 1 200.000 FPS (40 SPF)

Compression mode                         : Lossless

Stream size                              : 3.98 GiB (18%)

Language                                 : English

Default                                  : Yes

Forced                                   : No

Number of dynamic objects                : 11

Bed channel count                        : 1 channel

Bed channel configuration                : LFE



Audio #2

ID                                       : 3

Format                                   : AC-3

Format/Info                              : Audio Coding 3

Commercial name                          : Dolby Digital

Codec ID                                 : A_AC3

Duration                                 : 1 h 52 min

Bit rate mode                            : Constant

Bit rate                                 : 640 kb/s

Channel(s)                               : 6 channels

Channel layout                           : L R C LFE Ls Rs

Sampling rate                            : 48.0 kHz

Frame rate                               : 31.250 FPS (1536 SPF)

Compression mode                         : Lossy

Stream size                              : 513 MiB (2%)

Language                                 : English

Service kind                             : Complete Main

Default                                  : No

Forced                                   : No



Text #1

ID                                       : 4

Format                                   : PGS

Muxing mode                              : zlib

Codec ID                                 : S_HDMV/PGS

Codec ID/Info                            : Picture based subtitle format used on BDs/HD-DVDs

Duration                                 : 1 h 42 min

Bit rate                                 : 39.3 kb/s

Count of elements                        : 3016

Stream size                              : 29.0 MiB (0%)

Title                                    : Full

Language                                 : English

Default                                  : No

Forced                                   : No



Text #2

ID                                       : 5

Format                                   : PGS

Muxing mode                              : zlib

Codec ID                                 : S_HDMV/PGS

Codec ID/Info                            : Picture based subtitle format used on BDs/HD-DVDs

Duration                                 : 1 h 43 min

Bit rate                                 : 47.0 kb/s

Count of elements                        : 3758

Stream size                              : 34.7 MiB (0%)

Title                                    : SDH

Language                                 : English

Default                                  : No

Forced                                   : No



Text #3

ID                                       : 6

Format                                   : PGS

Muxing mode                              : zlib

Codec ID                                 : S_HDMV/PGS

Codec ID/Info                            : Picture based subtitle format used on BDs/HD-DVDs

Duration                                 : 1 h 43 min

Bit rate                                 : 38.3 kb/s

Count of elements                        : 3422

Stream size                              : 28.2 MiB (0%)

Language                                 : French

Default                                  : No

Forced                                   : No



Text #4

ID                                       : 7

Format                                   : PGS

Muxing mode                              : zlib

Codec ID                                 : S_HDMV/PGS

Codec ID/Info                            : Picture based subtitle format used on BDs/HD-DVDs

Duration                                 : 1 h 43 min

Bit rate                                 : 35.8 kb/s

Count of elements                        : 2738

Stream size                              : 26.4 MiB (0%)

Language                                 : Spanish

Default                                  : No

Forced                                   : No



Text #5

ID                                       : 8

Format                                   : PGS

Muxing mode                              : zlib

Codec ID                                 : S_HDMV/PGS

Codec ID/Info                            : Picture based subtitle format used on BDs/HD-DVDs

Duration                                 : 1 h 43 min

Bit rate                                 : 30.6 kb/s

Count of elements                        : 2740

Stream size                              : 22.6 MiB (0%)

Language                                 : Portuguese

Default                                  : No

Forced                                   : No











DDR /Desitorrents.tv

Discussion

Comments 0

Post Your Comment

Files in this torrent

FILENAMESIZE
Teenage.Mutant.Ninja.Turtles.Out.of.the.Shadows.2016.UHD.2160p.HDR.BluRay.Atmos.7.1.HEVC-DDR.mkv21.7 GB

Alternative Torrents for 'Teenage Mutant Ninja Turtles Out of Shadows UHD HDR BluRay Atmos HEVCDDR'.

There are no alternative torrents found.