Let Him Go (2020) 2160p HDR 5 1 X265 10bit Phun Psyz

Torrent Details


Let Him Go (2020) 2160p HDR 5 1 x265 10bit Phun Psyz

NAME
Let Him Go (2020) 2160p HDR 5 1 x265 10bit Phun Psyz.torrent
CATEGORY
Movies
INFOHASH
80a8146886aa2f3d1d5307ea36a64b2d01e16b09
SIZE
1.1 GB in 1 file
ADDED
Uploaded on 14-12-2020 by our crawler pet called "Spidey".
SWARM
1 seeders & 2 peers
RATING
No votes yet.

Please login to vote for this torrent.


Description

www.imdb.com/title/tt9340860/

A retired sheriff and his wife, grieving over the death of their son, set out to find their only grandson.

Source: ?? (Web, 12.4GB)



Format : Matroska
Format version : Version 4
File size : 1.13 GiB
Duration : 1 h 54 min
Overall bit rate : 1 420 kb/s
Writing application : HandBrake 1.3.3 2020061300
Writing library : Lavf58.29.100

Video
ID : 1
Format : HEVC
Format/Info : High Efficiency Video Coding
Format profile : Main [email protected]@High
Codec ID : V_MPEGH/ISO/HEVC
Duration : 1 h 54 min
Bit rate : 1 072 kb/s
Width : 3 840 pixels
Height : 1 600 pixels
Display aspect ratio : 2.40:1
Frame rate mode : Constant
Frame rate : 23.976 (24000/1001) FPS
Color space : YUV
Chroma subsampling : 4:2:0
Bit depth : 10 bits
Bits/(Pixel*Frame) : 0.007
Stream size : 874 MiB (75%)
Writing library : x265 3.2.1+1-b5c86a64bbbe:[Windows][GCC 9.2.0][64 bit] 10bit
Color range : Full
Color primaries : BT.2020
Transfer characteristics : PQ
Matrix coefficients : BT.2020 non-constant

Audio
ID : 2
Format : AC-3
Format/Info : Audio Coding 3
Commercial name : Dolby Digital
Codec ID : A_AC3
Duration : 1 h 54 min
Bit rate mode : Constant
Bit rate : 320 kb/s
Channel(s) : 6 channels
Channel layout : L R C LFE Ls Rs
Sampling rate : 48.0 kHz
Frame rate : 31.250 FPS (1536 SPF)
Compression mode : Lossy
Delay relative to video : -5 ms
Stream size : 261 MiB (23%)
Title : Original
Language : English

Text
Language : English
Default : No
Forced : No

Discussion

Comments 0

Post Your Comment

Files in this torrent

FILENAMESIZE
Let Him Go (2020) 2160p HDR 5.1 x265 10bit Phun Psyz.mkv1.1 GB

Alternative Torrents for 'Let Him Go HDR bit Phun Psyz'.

There are no alternative torrents found.