Pandora Season 2

Torrent Details

Pandora Season 2

NAME
Pandora Season 2.torrent
CATEGORY
Television
INFOHASH
1e8277658881902f9417a466f0e51b9a3ac51fbc
SIZE
3.6 GB in 10 files
ADDED
Uploaded on 14-12-2020 by our crawler pet called "Spidey".
SWARM
8 seeders & 4 peers
RATING
No votes yet.

Please login to vote for this torrent.


Description

https://www.imdb.com/title/tt10207090



Format : Matroska
Format version : Version 4
Overall bit rate : 1 283 kb/s
Writing application : mkvmerge v50.0.0 ('Awakenings') 64-bit
Writing library : libebml v1.4.0 + libmatroska v1.6.2

Video
ID : 1
Format : AVC
Format/Info : Advanced Video Codec
Format profile : [email protected]
Format settings : CABAC / 3 Ref Frames
Format settings, CABAC : Yes
Format settings, Reference frames : 3 frames
Codec ID : V_MPEG4/ISO/AVC
Duration : 42 min 0 s
Bit rate mode : Constant
Bit rate : 1 200 kb/s
Width : 960 pixels
Height : 540 pixels
Display aspect ratio : 16:9
Frame rate mode : Constant
Frame rate : 23.976 (24000/1001) FPS
Color space : YUV
Chroma subsampling : 4:2:0
Bit depth : 8 bits
Scan type : Progressive
Bits/(Pixel*Frame) : 0.097
Stream size : 357 MiB (93%)
Language : English
Default : Yes
Forced : No

Audio
ID : 2
Format : AAC LC
Format/Info : Advanced Audio Codec Low Complexity
Codec ID : A_AAC-2
Duration : 42 min 0 s
Bit rate : 93.6 kb/s
Channel(s) : 2 channels
Channel layout : L R
Sampling rate : 44.1 kHz
Frame rate : 43.066 FPS (1024 SPF)
Compression mode : Lossy
Delay relative to video : -36 ms
Stream size : 28.1 MiB (7%)
Language : English
Default : Yes
Forced : No

Text
ID : 3
Format : UTF-8
Codec ID : S_TEXT/UTF8
Codec ID/Info : UTF-8 Plain Text
Duration : 41 min 58 s
Bit rate : 69 b/s
Count of elements : 733
Stream size : 21.5 KiB (0%)
Language : English
Default : No
Forced : No

Discussion

Comments 0

Post Your Comment

Files in this torrent

FILENAMESIZE
S02E01 Things Have Changed.mkv385.5 MB
S02E02 Don't Think Twice, It's All Right.mkv390 MB
S02E03 Gates of Eden.mkv389.5 MB
S02E04 Beyond Here Lies Nothin'.mkv375.9 MB
S02E05 On a Night Like This.mkv387.6 MB
S02E06 Pay in Blood.mkv387.3 MB
S02E07 A Fool Such As I.mkv383.4 MB
S02E08 Tell Me that It Isn't True.mkv386.8 MB
S02E09 All Along the Watchtower.mkv380.5 MB
S02E10 I Forgot More Than You'll Ever Know.mkv251.2 MB

Alternative Torrents for 'Pandora Season'.

TORRENT NAMEADDEDSIZESEEDSPEERSHEALTH
12/14/20203.6 GB84
1/15/20212 GB11
5/29/20204.9 GB00
5/29/202015.7 GB00
5/29/20205.5 GB00
5/29/202022.4 GB00
5/29/20206.1 GB00
5/29/20203 GB00
5/29/20208 GB00
5/29/202024.7 GB00
3/17/2020174 MB00
12/7/20194.5 GB00
10/15/20196.4 GB00
10/7/20199.1 GB00
9/8/20194.2 GB00