Greenland 2020 2160p BluRay X265 10bit SDR DTS-HD MA TrueHD 7.1 Atmos-SWTYBLZ

Torrent Details

Greenland 2020 2160p BluRay x265 10bit SDR DTS-HD MA TrueHD 7.1 Atmos<span style=color:#fc9c6d>-SWTYBLZ</span>

NAME
Greenland 2020 2160p BluRay x265 10bit SDR DTS-HD MA TrueHD 7.1 Atmos-SWTYBLZ.torrent
CATEGORY
Movies
INFOHASH
b7ea692b5dbd3c0648f407a29d6912a8ed9c399d
SIZE
31.8 GB in 3 files
ADDED
Uploaded on 16-12-2020 by our crawler pet called "Spidey".
SWARM
2 seeders & 5 peers
RATING
No votes yet.

Please login to vote for this torrent.


Description

帖子完整标题:末日逃生/地球陷落 Greenland.2020.2160p.BluRay.x265.10bit.SDR.DTS-HD.MA.TrueHD.7.1.Atmos-SWTYBLZ 31.85GB@HighCodec ID : V_MPEGH/ISO/HEVCDuration : 1 h 59 minBit rate : 29.3 Mb/sWidth : 3 840 pixelsHeight : 1 606 pixelsDisplay aspect ratio : 2.40:1Frame rate mode : ConstantFrame rate : 23.976 (24000/1001/189150) FPSColor space : YUVChroma subsampling : 4:2:0Bit depth : 10 bitsBits/(Pixel*Frame) : 0.198Stream size : 24.5 GiB (77%)Writing library : x265 3.0ed72af837053:[Windows][GCC 8.2.0][64 bit] 10bitEncoding settings : cpuid=1111039 / frame-threads=6 / numa-pools=40 / wpp / no-pmode / no-pme / no-psnr / no-ssim / log-level=2 / input-csp=1 / input-res=3840x1606 / interlace=0 / total-frames=171901 / level-idc=51 / high-tier=1 / uhd-bd=0 / ref=3 / no-allow-non-conformance / repeat-headers / annexb / aud / hrd / info / hash=0 / no-temporal-layers / no-open-gop / min-keyint=1 / keyint=24 / gop-lookahead=0 / bframes=4 / b-adapt=2 / b-pyramid / bframe-bias=0 / rc-lookahead=25 / lookahead-slices=4 / scenecut=40 / radl=0 / no-splice / no-intra-refresh / ctu=64 / min-cu-size=8 / no-rect / no-amp / max-tu-size=32 / tu-inter-depth=1 / tu-intra-depth=1 / limit-tu=0 / rdoq-level=0 / dynamic-rd=0.00 / no-ssim-rd / signhide / no-tskip / nr-intra=0 / nr-inter=0 / no-constrained-intra / strong-intra-smoothing / max-merge=2 / limit-refs=3 / no-limit-modes / me=1 / subme=2 / merange=57 / temporal-mvp / weightp / no-weightb / no-analyze-src-pics / deblock=0:0 / no-sao / no-sao-non-deblock / rd=3 / no-early-skip / rskip / no-fast-intra / no-tskip-fast / no-cu-lossless / no-b-intra / no-splitrd-skip / rdpenalty=0 / psy-rd=2.00 / psy-rdoq=0.00 / no-rd-refine / no-lossless / cbqpoffs=0 / crqpoffs=0 / rc=crf / crf=16.0 / qcomp=0.60 / qpstep=4 / stats-write=0 / stats-read=0 / vbv-maxrate=160000 / vbv-bufsize=160000 / vbv-init=0.9 / crf-max=0.0 / crf-min=0.0 / ipratio=1.40 / pbratio=1.30 / aq-mode=1 / aq-strength=1.00 / cutree / zone-count=0 / no-strict-cbr / qg-size=32 / no-rc-grain / qpmax=69 / qpmin=0 / no-const-vbv / sar=1 / overscan=0 / videoformat=5 / range=0 / colorprim=2 / transfer=2 / colormatrix=2 / chromaloc=0 / display-window=0 / max-cll=0,0 / min-luma=0 / max-luma=1023 / log2-max-poc-lsb=8 / vui-timing-info / vui-hrd-info / slices=1 / opt-qp-pps / opt-ref-list-length-pps / no-multi-pass-opt-rps / scenecut-bias=0.05 / no-opt-cu-delta-qp / no-aq-motion / no-hdr / no-hdr-opt / no-dhdr10-opt / no-idr-recovery-sei / analysis-reuse-level=5 / scale-factor=0 / refine-intra=0 / refine-inter=0 / refine-mv=0 / refine-ctu-distortion=0 / no-limit-sao / ctu-info=0 / no-lowpass-dct / refine-analysis-type=0 / copy-pic=1 / max-ausize-factor=1.0 / no-dynamic-refine / no-single-sei / no-hevc-aq / qp-adaptation-range=1.00Language : EnglishDefault : YesForced : NoAudio #1ID : 2ID in the original source medium : 4353 (0x1101)Format : MLP FBA 16-chFormat/Info : Meridian Lossless Packing FBA with 16-channel presentationCommercial name : Dolby TrueHD with Dolby AtmosCodec ID : A_TRUEHDDuration : 1 h 59 minBit rate mode : VariableBit rate : 3 960 kb/sMaximum bit rate : 7 086 kb/sChannel(s) : 8 channelsChannel layout : L R C LFE Ls Rs Lb RbSampling rate : 48.0 kHzFrame rate : 1 200.000 FPS (40 SPF)Compression mode : LosslessStream size : 3.31 GiB (10%)Title : TrueHD 7.1. AtmosLanguage : EnglishDefault : YesForced : NoOriginal source medium : Blu-rayNumber of dynamic objects : 11Bed channel count : 1 channelBed channel configuration : LFEAudio #2ID : 3Format : DTS XLLFormat/Info : Digital Theater SystemsCommercial name : DTS-HD Master AudioCodec ID : A_DTSDuration : 1 h 59 minBit rate mode : VariableBit rate : 3 934 kb/sChannel(s) : 8 channelsChannel layout : C L R LFE Lb Rb Lss RssSampling rate : 48.0 kHzFrame rate : 93.750 FPS (512 SPF)Bit depth : 24 bitsCompression mode : LosslessDelay relative to video : 3 msStream size : 3.29 GiB (10%)Title : DTS-HD MA 7.1Language : EnglishDefault : NoForced : NoAudio #3ID : 4ID in the original source medium : 4353 (0x1101)Format : AC-3Format/Info : Audio Coding 3Commercial name : Dolby DigitalCodec ID : A_AC3Duration : 1 h 59 minBit rate mode : ConstantBit rate : 640 kb/sChannel(s) : 6 channelsChannel layout : L R C LFE Ls RsSampling rate : 48.0 kHzFrame rate : 31.250 FPS (1536 SPF)Compression mode : LossyDelay relative to video : 14 msStream size : 547 MiB (2%)Title : AC3 5.1Language : EnglishService kind : Complete MainDefault : NoForced : NoOriginal source medium : Blu-rayText #1ID : 5Format : UTF-8Codec ID : S_TEXT/UTF8Codec ID/Info : UTF-8 Plain TextDuration : 1 h 52 minBit rate : 59 b/sCount of elements : 1496Stream size : 48.7 KiB (0%)Title : English-SRTLanguage : EnglishDefault : YesForced : NoText #2ID : 6Format : UTF-8Codec ID : S_TEXT/UTF8Codec ID/Info : UTF-8 Plain TextDuration : 1 h 52 minBit rate : 68 b/sCount of elements : 1758Stream size : 56.6 KiB (0%)Title : English-SDH-SRTLanguage : EnglishDefault : NoForced : NoText #3ID : 7ID in the original source medium : 4768 (0x12A0)Format : PGSMuxing mode : zlibCodec ID : S_HDMV/PGSCodec ID/Info : Picture based subtitle format used on BDs/HD-DVDsDuration : 1 h 52 minBit rate : 25.9 kb/sCount of elements : 1814Stream size : 20.9 MiB (0%)Title : Danish-PGSLanguage : DanishDefault : NoForced : NoOriginal source medium : Blu-rayText #4ID : 8ID in the original source medium : 4769 (0x12A1)Format : PGSMuxing mode : zlibCodec ID : S_HDMV/PGSCodec ID/Info : Picture based subtitle format used on BDs/HD-DVDsDuration : 1 h 52 minBit rate : 28.2 kb/sCount of elements : 1834Stream size : 22.7 MiB (0%)Title : Finnish-PGSLanguage : FinnishDefault : NoForced : NoOriginal source medium : Blu-rayText #5ID : 9ID in the original source medium : 4770 (0x12A2)Format : PGSMuxing mode : zlibCodec ID : S_HDMV/PGSCodec ID/Info : Picture based subtitle format used on BDs/HD-DVDsDuration : 1 h 52 minBit rate : 24.6 kb/sCount of elements : 1820Stream size : 19.8 MiB (0%)Title : Norwegian-PGSLanguage : NorwegianDefault : NoForced : NoOriginal source medium : Blu-rayText #6ID : 10ID in the original source medium : 4771 (0x12A3)Format : PGSMuxing mode : zlibCodec ID : S_HDMV/PGSCodec ID/Info : Picture based subtitle format used on BDs/HD-DVDsDuration : 1 h 52 minBit rate : 26.8 kb/sCount of elements : 1842Stream size : 21.6 MiB (0%)Title : Swedish-PGSLanguage : SwedishDefault : NoForced : NoOriginal source medium : Blu-rayMenu00:00:00.000 : en:Chapter 0100:14:35.875 : en:Chapter 0200:30:41.881 : en:Chapter 0300:45:21.719 : en:Chapter 0400:59:22.684 : en:Chapter 0501:14:57.201 : en:Chapter 0601:30:32.635 : en:Chapter 0701:45:14.224 : en:Chapter 08

Files in this torrent

FILENAMESIZE
Greenland.2020.2160p.BluRay.x265.10bit.SDR.DTS-HD.MA.TrueHD.7.1.Atmos-SWTYBLZ.mkv31.7 GB
RARBG.txt31 B
Sample/Sample-GBSM10.mkv140.4 MB

Alternative Torrents for 'Greenland BluRay bit SDR DTSHD MA TrueHD Atmos'.

There are no alternative torrents found.