Greenland 2020 2160p BluRay X264 8bit SDR DTS-HD MA TrueHD 7.1 Atmos-SWTYBLZ

Torrent Details

Greenland 2020 2160p BluRay x264 8bit SDR DTS-HD MA TrueHD 7.1 Atmos<span style=color:#fc9c6d>-SWTYBLZ</span>

NAME
Greenland 2020 2160p BluRay x264 8bit SDR DTS-HD MA TrueHD 7.1 Atmos-SWTYBLZ.torrent
CATEGORY
Movies
INFOHASH
f98b55064c969f4ab8c497f5b23b8316ab829f22
SIZE
36.2 GB in 3 files
ADDED
Uploaded on 16-12-2020 by our crawler pet called "Spidey".
SWARM
1 seeders & 3 peers
RATING
No votes yet.

Please login to vote for this torrent.


Description

帖子完整标题:末日逃生/地球陷落 Greenland.2020.2160p.BluRay.x264.8bit.SDR.DTS-HD.MA.TrueHD.7.1.Atmos-SWTYBLZ 36.18GBFormat settings : CABAC / 5 Ref FramesFormat settings, CABAC : YesFormat settings, Reference frames : 5 framesCodec ID : V_MPEG4/ISO/AVCDuration : 1 h 59 minBit rate : 34.5 Mb/sWidth : 3 840 pixelsHeight : 1 606 pixelsDisplay aspect ratio : 2.40:1Frame rate mode : ConstantFrame rate : 23.976 (24000/1001/189150) FPSColor space : YUVChroma subsampling : 4:2:0Bit depth : 8 bitsScan type : ProgressiveBits/(Pixel*Frame) : 0.234Stream size : 28.8 GiB (80%)Writing library : x264 core 157 r2935 545de2fEncoding settings : cabac=1 / ref=5 / deblock=1:-1:-1 / analyse=0x3:0x113 / me=umh / subme=10 / psy=1 / psy_rd=1.00:0.15 / mixed_ref=1 / me_range=48 / chroma_me=1 / trellis=2 / 8x8dct=1 / cqm=0 / deadzone=21,11 / fast_pskip=1 / chroma_qp_offset=-3 / threads=48 / lookahead_threads=4 / sliced_threads=0 / nr=0 / decimate=0 / interlaced=0 / bluray_compat=0 / constrained_intra=0 / bframes=3 / b_pyramid=2 / b_adapt=2 / b_bias=0 / direct=3 / weightb=1 / open_gop=0 / weightp=2 / keyint=250 / keyint_min=23 / scenecut=40 / intra_refresh=0 / rc_lookahead=50 / rc=crf / mbtree=1 / crf=18.0 / qcomp=0.60 / qpmin=0 / qpmax=69 / qpstep=4 / ip_ratio=1.40 / aq=1:1.00Language : EnglishDefault : YesForced : NoAudio #1ID : 2ID in the original source medium : 4353 (0x1101)Format : MLP FBA 16-chFormat/Info : Meridian Lossless Packing FBA with 16-channel presentationCommercial name : Dolby TrueHD with Dolby AtmosCodec ID : A_TRUEHDDuration : 1 h 59 minBit rate mode : VariableBit rate : 3 960 kb/sMaximum bit rate : 7 086 kb/sChannel(s) : 8 channelsChannel layout : L R C LFE Ls Rs Lb RbSampling rate : 48.0 kHzFrame rate : 1 200.000 FPS (40 SPF)Compression mode : LosslessStream size : 3.31 GiB (9%)Title : TrueHD 7.1. AtmosLanguage : EnglishDefault : YesForced : NoOriginal source medium : Blu-rayNumber of dynamic objects : 11Bed channel count : 1 channelBed channel configuration : LFEAudio #2ID : 3Format : DTS XLLFormat/Info : Digital Theater SystemsCommercial name : DTS-HD Master AudioCodec ID : A_DTSDuration : 1 h 59 minBit rate mode : VariableBit rate : 3 934 kb/sChannel(s) : 8 channelsChannel layout : C L R LFE Lb Rb Lss RssSampling rate : 48.0 kHzFrame rate : 93.750 FPS (512 SPF)Bit depth : 24 bitsCompression mode : LosslessDelay relative to video : 3 msStream size : 3.29 GiB (9%)Title : DTS-HD MA 7.1Language : EnglishDefault : NoForced : NoAudio #3ID : 4ID in the original source medium : 4353 (0x1101)Format : AC-3Format/Info : Audio Coding 3Commercial name : Dolby DigitalCodec ID : A_AC3Duration : 1 h 59 minBit rate mode : ConstantBit rate : 640 kb/sChannel(s) : 6 channelsChannel layout : L R C LFE Ls RsSampling rate : 48.0 kHzFrame rate : 31.250 FPS (1536 SPF)Compression mode : LossyDelay relative to video : 14 msStream size : 547 MiB (1%)Title : AC3 5.1Language : EnglishService kind : Complete MainDefault : NoForced : NoOriginal source medium : Blu-rayText #1ID : 5Format : UTF-8Codec ID : S_TEXT/UTF8Codec ID/Info : UTF-8 Plain TextDuration : 1 h 52 minBit rate : 59 b/sCount of elements : 1496Stream size : 48.7 KiB (0%)Title : English-SRTLanguage : EnglishDefault : YesForced : NoText #2ID : 6Format : UTF-8Codec ID : S_TEXT/UTF8Codec ID/Info : UTF-8 Plain TextDuration : 1 h 52 minBit rate : 68 b/sCount of elements : 1758Stream size : 56.6 KiB (0%)Title : English-SDH-SRTLanguage : EnglishDefault : NoForced : NoText #3ID : 7ID in the original source medium : 4768 (0x12A0)Format : PGSMuxing mode : zlibCodec ID : S_HDMV/PGSCodec ID/Info : Picture based subtitle format used on BDs/HD-DVDsDuration : 1 h 52 minBit rate : 25.9 kb/sCount of elements : 1814Stream size : 20.9 MiB (0%)Title : Danish-PGSLanguage : DanishDefault : NoForced : NoOriginal source medium : Blu-rayText #4ID : 8ID in the original source medium : 4769 (0x12A1)Format : PGSMuxing mode : zlibCodec ID : S_HDMV/PGSCodec ID/Info : Picture based subtitle format used on BDs/HD-DVDsDuration : 1 h 52 minBit rate : 28.2 kb/sCount of elements : 1834Stream size : 22.7 MiB (0%)Title : Finnish-PGSLanguage : FinnishDefault : NoForced : NoOriginal source medium : Blu-rayText #5ID : 9ID in the original source medium : 4770 (0x12A2)Format : PGSMuxing mode : zlibCodec ID : S_HDMV/PGSCodec ID/Info : Picture based subtitle format used on BDs/HD-DVDsDuration : 1 h 52 minBit rate : 24.6 kb/sCount of elements : 1820Stream size : 19.8 MiB (0%)Title : Norwegian-PGSLanguage : NorwegianDefault : NoForced : NoOriginal source medium : Blu-rayText #6ID : 10ID in the original source medium : 4771 (0x12A3)Format : PGSMuxing mode : zlibCodec ID : S_HDMV/PGSCodec ID/Info : Picture based subtitle format used on BDs/HD-DVDsDuration : 1 h 52 minBit rate : 26.8 kb/sCount of elements : 1842Stream size : 21.6 MiB (0%)Title : Swedish-PGSLanguage : SwedishDefault : NoForced : NoOriginal source medium : Blu-rayMenu00:00:00.000 : en:Chapter 0100:14:35.875 : en:Chapter 0200:30:41.881 : en:Chapter 0300:45:21.719 : en:Chapter 0400:59:22.684 : en:Chapter 0501:14:57.201 : en:Chapter 0601:30:32.635 : en:Chapter 0701:45:14.224 : en:Chapter 08

Files in this torrent

FILENAMESIZE
Greenland.2020.2160p.BluRay.x264.8bit.SDR.DTS-HD.MA.TrueHD.7.1.Atmos-SWTYBLZ.mkv36 GB
RARBG.txt31 B
Sample/Sample-GBSM8.mkv151.4 MB

Alternative Torrents for 'Greenland BluRay bit SDR DTSHD MA TrueHD Atmos'.

There are no alternative torrents found.