No Escape 2020 2160p BluRay X265 10bit SDR DTS-HD MA 5.1-SWTYBLZ

Torrent Details

No Escape 2020 2160p BluRay x265 10bit SDR DTS-HD MA 5.1<span style=color:#fc9c6d>-SWTYBLZ</span>

NAME
No Escape 2020 2160p BluRay x265 10bit SDR DTS-HD MA 5.1-SWTYBLZ.torrent
CATEGORY
Movies
INFOHASH
0ae4887577bfa79c4c95ce93942952b37b68d1d2
SIZE
33.5 GB in 3 files
ADDED
Uploaded on 23-12-2020 by our crawler pet called "Spidey".
SWARM
0 seeders & 1 peers
RATING
No votes yet.

Please login to vote for this torrent.


Description

帖子完整标题:极限网红 No.Escape.2020.2160p.BluRay.x265.10bit.SDR.DTS-HD.MA.5.1-SWTYBLZ 33.53GB  一个社交媒体人物与他的朋友一起前往莫斯科,以获取他成功的VLOG的新内容。他们总是不断挑战极限,迎合不断增长的受众,他们进入了一个充满神秘,过度和危险的寒冷世界。当现实生活与社交媒体之间的界线变得模糊时,该组织必须为逃避和生存而战。Video ID : 1 Format : HEVC Format/Info : High Efficiency Video Coding Format profile : Main [email protected]@High Codec ID : V_MPEGH/ISO/HEVC Duration : 1 h 31 min Bit rate : 49.4 Mb/s Width : 3 840 pixels Height : 1 610 pixels Display aspect ratio : 2.40:1 Frame rate mode : Constant Frame rate : 23.976 (24000/1001/189150) FPS Color space : YUV Chroma subsampling : 4:2:0 Bit depth : 10 bits Bits/(Pixel*Frame) : 0.333 Stream size : 31.7 GiB (95%) Writing library : x265 3.0ed72af837053:[Windows][GCC 8.2.0][64 bit] 10bit Encoding settings : cpuid=1111039 / frame-threads=6 / numa-pools=40 / wpp / no-pmode / no-pme / no-psnr / no-ssim / log-level=2 / input-csp=1 / input-res=3840x1610 / interlace=0 / total-frames=132168 / level-idc=51 / high-tier=1 / uhd-bd=0 / ref=3 / no-allow-non-conformance / repeat-headers / annexb / aud / hrd / info / hash=0 / no-temporal-layers / no-open-gop / min-keyint=1 / keyint=24 / gop-lookahead=0 / bframes=4 / b-adapt=2 / b-pyramid / bframe-bias=0 / rc-lookahead=25 / lookahead-slices=4 / scenecut=40 / radl=0 / no-splice / no-intra-refresh / ctu=64 / min-cu-size=8 / no-rect / no-amp / max-tu-size=32 / tu-inter-depth=1 / tu-intra-depth=1 / limit-tu=0 / rdoq-level=0 / dynamic-rd=0.00 / no-ssim-rd / signhide / no-tskip / nr-intra=0 / nr-inter=0 / no-constrained-intra / strong-intra-smoothing / max-merge=2 / limit-refs=3 / no-limit-modes / me=1 / subme=2 / merange=57 / temporal-mvp / weightp / no-weightb / no-analyze-src-pics / deblock=0:0 / no-sao / no-sao-non-deblock / rd=3 / no-early-skip / rskip / no-fast-intra / no-tskip-fast / no-cu-lossless / no-b-intra / no-splitrd-skip / rdpenalty=0 / psy-rd=2.00 / psy-rdoq=0.00 / no-rd-refine / no-lossless / cbqpoffs=0 / crqpoffs=0 / rc=crf / crf=16.0 / qcomp=0.60 / qpstep=4 / stats-write=0 / stats-read=0 / vbv-maxrate=160000 / vbv-bufsize=160000 / vbv-init=0.9 / crf-max=0.0 / crf-min=0.0 / ipratio=1.40 / pbratio=1.30 / aq-mode=1 / aq-strength=1.00 / cutree / zone-count=0 / no-strict-cbr / qg-size=32 / no-rc-grain / qpmax=69 / qpmin=0 / no-const-vbv / sar=1 / overscan=0 / videoformat=5 / range=0 / colorprim=2 / transfer=2 / colormatrix=2 / chromaloc=0 / display-window=0 / max-cll=0,0 / min-luma=0 / max-luma=1023 / log2-max-poc-lsb=8 / vui-timing-info / vui-hrd-info / slices=1 / opt-qp-pps / opt-ref-list-length-pps / no-multi-pass-opt-rps / scenecut-bias=0.05 / no-opt-cu-delta-qp / no-aq-motion / no-hdr / no-hdr-opt / no-dhdr10-opt / no-idr-recovery-sei / analysis-reuse-level=5 / scale-factor=0 / refine-intra=0 / refine-inter=0 / refine-mv=0 / refine-ctu-distortion=0 / no-limit-sao / ctu-info=0 / no-lowpass-dct / refine-analysis-type=0 / copy-pic=1 / max-ausize-factor=1.0 / no-dynamic-refine / no-single-sei / no-hevc-aq / qp-adaptation-range=1.00 Language : English Default : Yes Forced : No Audio #1 ID : 2 ID in the original source medium : 4353 (0x1101) Format : DTS XLL Format/Info : Digital Theater Systems Commercial name : DTS-HD Master Audio Codec ID : A_DTS Duration : 1 h 31 min Bit rate mode : Variable Bit rate : 1 923 kb/s Channel(s) : 6 channels Channel layout : C L R Ls Rs LFE Sampling rate : 48.0 kHz Frame rate : 93.750 FPS (512 SPF) Bit depth : 16 bits Compression mode : Lossless Stream size : 1.23 GiB (4%) Title : DTS-HD MA 5.1 Language : English Default : Yes Forced : No Original source medium : Blu-ray Audio #2 ID : 3 Format : AC-3 Format/Info : Audio Coding 3 Commercial name : Dolby Digital Codec ID : A_AC3 Duration : 1 h 31 min Bit rate mode : Constant Bit rate : 640 kb/s Channel(s) : 6 channels Channel layout : L R C LFE Ls Rs Sampling rate : 48.0 kHz Frame rate : 31.250 FPS (1536 SPF) Compression mode : Lossy Stream size : 421 MiB (1%) Title : DD 5.1 Language : English Service kind : Complete Main Default : No Forced : No Text #1 ID : 4 Format : UTF-8 Codec ID : S_TEXT/UTF8 Codec ID/Info : UTF-8 Plain Text Duration : 1 h 26 min Bit rate : 56 b/s Count of elements : 1332 Stream size : 35.8 KiB (0%) Title : English-SRT Language : English Default : Yes Forced : No Text #2 ID : 5 ID in the original source medium : 4768 (0x12A0) Format : PGS Muxing mode : zlib Codec ID : S_HDMV/PGS Codec ID/Info : Picture based subtitle format used on BDs/HD-DVDs Duration : 1 h 26 min Bit rate : 40.1 kb/s Count of elements : 2764 Stream size : 24.9 MiB (0%) Title : German-PGS Language : German Default : No Forced : No Original source medium : Blu-ray Menu 00:00:00.000 : en:Chapter 01 00:07:54.849 : en:Chapter 02 00:16:39.415 : en:Chapter 03 00:26:26.793 : en:Chapter 04 00:32:04.631 : en:Chapter 05 00:41:22.062 : en:Chapter 06 00:48:31.867 : en:Chapter 07 00:55:21.943 : en:Chapter 08 01:02:20.278 : en:Chapter 09 01:09:55.232 : en:Chapter 10 01:16:01.932 : en:Chapter 11 01:23:11.778 : en:Chapter 12

Discussion

Comments 0

Post Your Comment

Files in this torrent

FILENAMESIZE
No.Escape.2020.2160p.BluRay.x265.10bit.SDR.DTS-HD.MA.5.1-SWTYBLZ.mkv33.4 GB
RARBG.txt31 B
Sample/Sample-NEBSM10.mkv158 MB

Alternative Torrents for 'No Escape BluRay bit SDR DTSHD MA'.

There are no alternative torrents found.