No Escape 2020 2160p BluRay X264 8bit SDR DTS-HD MA 5.1-SWTYBLZ

Torrent Details

No Escape 2020 2160p BluRay x264 8bit SDR DTS-HD MA 5.1<span style=color:#fc9c6d>-SWTYBLZ</span>

NAME
No Escape 2020 2160p BluRay x264 8bit SDR DTS-HD MA 5.1-SWTYBLZ.torrent
CATEGORY
Movies
INFOHASH
b8dad13cdd0253d5f831ec08aa5376bc678c1fc9
SIZE
38.3 GB in 3 files
ADDED
Uploaded on 23-12-2020 by our crawler pet called "Spidey".
SWARM
0 seeders & 4 peers
RATING
No votes yet.

Please login to vote for this torrent.


Description

帖子完整标题:极限网红 No.Escape.2020.2160p.BluRay.x264.8bit.SDR.DTS-HD.MA.5.1-SWTYBLZ 38.29GB  一个社交媒体人物与他的朋友一起前往莫斯科,以获取他成功的VLOG的新内容。他们总是不断挑战极限,迎合不断增长的受众,他们进入了一个充满神秘,过度和危险的寒冷世界。当现实生活与社交媒体之间的界线变得模糊时,该组织必须为逃避和生存而战。Video ID : 1 Format : AVC Format/Info : Advanced Video Codec Format profile : [email protected] Format settings : CABAC / 5 Ref Frames Format settings, CABAC : Yes Format settings, Reference frames : 5 frames Codec ID : V_MPEG4/ISO/AVC Duration : 1 h 31 min Bit rate : 56.1 Mb/s Width : 3 840 pixels Height : 1 610 pixels Display aspect ratio : 2.40:1 Frame rate mode : Constant Frame rate : 23.976 (24000/1001/189150) FPS Color space : YUV Chroma subsampling : 4:2:0 Bit depth : 8 bits Scan type : Progressive Bits/(Pixel*Frame) : 0.378 Stream size : 36.5 GiB (96%) Writing library : x264 core 157 r2935 545de2f Encoding settings : cabac=1 / ref=5 / deblock=1:-1:-1 / analyse=0x3:0x113 / me=umh / subme=10 / psy=1 / psy_rd=1.00:0.15 / mixed_ref=1 / me_range=48 / chroma_me=1 / trellis=2 / 8x8dct=1 / cqm=0 / deadzone=21,11 / fast_pskip=1 / chroma_qp_offset=-3 / threads=48 / lookahead_threads=4 / sliced_threads=0 / nr=0 / decimate=0 / interlaced=0 / bluray_compat=0 / constrained_intra=0 / bframes=3 / b_pyramid=2 / b_adapt=2 / b_bias=0 / direct=3 / weightb=1 / open_gop=0 / weightp=2 / keyint=250 / keyint_min=23 / scenecut=40 / intra_refresh=0 / rc_lookahead=50 / rc=crf / mbtree=1 / crf=18.0 / qcomp=0.60 / qpmin=0 / qpmax=69 / qpstep=4 / ip_ratio=1.40 / aq=1:1.00 Default : Yes Forced : No Audio #1 ID : 2 ID in the original source medium : 4353 (0x1101) Format : DTS XLL Format/Info : Digital Theater Systems Commercial name : DTS-HD Master Audio Codec ID : A_DTS Duration : 1 h 31 min Bit rate mode : Variable Bit rate : 1 923 kb/s Channel(s) : 6 channels Channel layout : C L R Ls Rs LFE Sampling rate : 48.0 kHz Frame rate : 93.750 FPS (512 SPF) Bit depth : 16 bits Compression mode : Lossless Stream size : 1.23 GiB (3%) Title : DTS-HD MA 5.1 Language : English Default : Yes Forced : No Original source medium : Blu-ray Audio #2 ID : 3 Format : AC-3 Format/Info : Audio Coding 3 Commercial name : Dolby Digital Codec ID : A_AC3 Duration : 1 h 31 min Bit rate mode : Constant Bit rate : 640 kb/s Channel(s) : 6 channels Channel layout : L R C LFE Ls Rs Sampling rate : 48.0 kHz Frame rate : 31.250 FPS (1536 SPF) Compression mode : Lossy Stream size : 421 MiB (1%) Title : DD 5.1 Language : English Service kind : Complete Main Default : No Forced : No Text #1 ID : 4 Format : UTF-8 Codec ID : S_TEXT/UTF8 Codec ID/Info : UTF-8 Plain Text Duration : 1 h 26 min Bit rate : 56 b/s Count of elements : 1332 Stream size : 35.8 KiB (0%) Title : English-SRT Language : English Default : Yes Forced : No Text #2 ID : 5 ID in the original source medium : 4768 (0x12A0) Format : PGS Muxing mode : zlib Codec ID : S_HDMV/PGS Codec ID/Info : Picture based subtitle format used on BDs/HD-DVDs Duration : 1 h 26 min Bit rate : 40.1 kb/s Count of elements : 2764 Stream size : 24.9 MiB (0%) Title : German-PGS Language : German Default : No Forced : No Original source medium : Blu-ray Menu 00:00:00.000 : en:Chapter 01 00:07:54.849 : en:Chapter 02 00:16:39.415 : en:Chapter 03 00:26:26.793 : en:Chapter 04 00:32:04.631 : en:Chapter 05 00:41:22.062 : en:Chapter 06 00:48:31.867 : en:Chapter 07 00:55:21.943 : en:Chapter 08 01:02:20.278 : en:Chapter 09 01:09:55.232 : en:Chapter 10 01:16:01.932 : en:Chapter 11 01:23:11.778 : en:Chapter 12

Discussion

Comments 0

Post Your Comment

Files in this torrent

FILENAMESIZE
No.Escape.2020.2160p.BluRay.x264.8bit.SDR.DTS-HD.MA.5.1-SWTYBLZ.mkv38.1 GB
RARBG.txt31 B
Sample/Sample-NEBSM8.mkv149.8 MB

Alternative Torrents for 'No Escape BluRay bit SDR DTSHD MA'.

There are no alternative torrents found.