Al Capone-Icon 720p HDTV X264-TERRA[rarbg]

Torrent Details


Al Capone-Icon 720p HDTV x264-TERRA[rarbg]

NAME
Al Capone-Icon 720p HDTV x264-TERRA[rarbg].torrent
CATEGORY
Television
INFOHASH
8cfb4f3c887bb3edd1213853c8bb70190216e1b3
SIZE
966 MB in 3 files
ADDED
Uploaded on 16-08-2014 by our crawler pet called "Spidey".
SWARM
0 seeders & 0 peers
RATING
No votes yet.

Please login to vote for this torrent.


Description

Al.Capone-Icon.720p.HDTV.x264-TERRA[rartv]

[mediainfo]

Video
ID : 1
Format : AVC
Format/Info : Advanced Video Codec
Format profile : [email protected]
Format settings, CABAC : Yes
Format settings, ReFrames : 5 frames
Codec ID : V_MPEG4/ISO/AVC
Duration : 54mn 47s
Bit rate : 2 031 Kbps
Width : 1 280 pixels
Height : 720 pixels
Display aspect ratio : 16:9
Frame rate mode : Constant
Frame rate : 23.976 fps
Color space : YUV
Chroma subsampling : 4:2:0
Bit depth : 8 bits
Scan type : Progressive
Bits/(Pixel*Frame) : 0.092
Stream size : 796 MiB (82%)
Writing library : x264 core 142 r2431M ac76440
Encoding settings : cabac=1 / ref=5 / deblock=1:0:0 / analyse=0x3:0x113 / me=umh / subme=8 / psy=1 / psy_rd=1.00:0.00 / mixed_ref=1 / me_range=16 / chroma_me=1 / trellis=1 / 8x8dct=1 / cqm=0 / deadzone=21,11 / fast_pskip=1 / chroma_qp_offset=-2 / threads=12 / lookahead_threads=2 / sliced_threads=0 / nr=0 / decimate=1 / interlaced=0 / bluray_compat=0 / stitchable=1 / constrained_intra=0 / bframes=3 / b_pyramid=2 / b_adapt=2 / b_bias=0 / direct=3 / weightb=1 / open_gop=0 / weightp=2 / keyint=250 / keyint_min=23 / scenecut=40 / intra_refresh=0 / rc_lookahead=50 / rc=crf / mbtree=1 / crf=20.0 / qcomp=0.60 / qpmin=0 / qpmax=69 / qpstep=4 / ip_ratio=1.40 / aq=1:1.00
Language : English
Default : Yes
Forced : No
Matrix coefficients : BT.709

Audio
ID : 2
Format : AC-3
Format/Info : Audio Coding 3
Mode extension : CM (complete main)
Format settings, Endianness : Big
Codec ID : A_AC3
Duration : 54mn 47s
Bit rate mode : Constant
Bit rate : 384 Kbps
Channel(s) : 6 channels
Channel positions : Front: L C R, Side: L R, LFE
Sampling rate : 48.0 KHz
Bit depth : 16 bits
Compression mode : Lossy
Stream size : 150 MiB (16%)
Default : Yes
Forced : No

Text
ID : 3
Format : UTF-8
Codec ID : S_TEXT/UTF8
Codec ID/Info : UTF-8 Plain Text
Language : English
Default : Yes
Forced : No

[/mediainfo]

Discussion

Comments 0

Post Your Comment

Files in this torrent

FILENAMESIZE
Al.Capone-Icon.720p.HDTV.x264-TERRA.mkv965.5 MB
al.capone-icon.720p.hdtv.x264-terra.nfo4.9 KB
RARBG.com.txt34 B

Alternative Torrents for 'Al CaponeIcon TERRArarbg'.

TORRENT NAMEADDEDSIZESEEDSPEERSHEALTH
8/13/2020246 MB499
8/5/2020545 MB487
8/13/20201016 MB3616
8/1/20201.1 GB355
8/13/2020590 kB341
8/10/202055 MB313
8/8/20201013 MB182
8/3/2020508 kB142
8/11/20207 MB111
8/9/202025.4 GB615
8/1/20201.5 GB52
8/1/20201.1 GB54
8/1/2020957 MB42
8/1/20201.7 GB43
8/8/20201.6 GB20