High School Musical The Musical The Holiday Special 2020 2160p DSNP WEBRip X265 10bit HDR DDP5.1 Atmos-ROCCaT

Torrent Details

High School Musical The Musical The Holiday Special 2020 2160p DSNP WEBRip x265 10bit HDR DDP5.1 Atmos-ROCCaT

NAME
High School Musical The Musical The Holiday Special 2020 2160p DSNP WEBRip x265 10bit HDR DDP5.1 Atmos-ROCCaT.torrent
CATEGORY
Movies
INFOHASH
dda3644706ed3ffdd6c4fa3cf469bace6e4a717a
SIZE
5.4 GB in 2 files
ADDED
Uploaded on 29-12-2020 by our crawler pet called "Spidey".
SWARM
0 seeders & 0 peers
RATING
No votes yet.

Please login to vote for this torrent.


Description

帖子完整标题:歌舞青春音乐剧:假日特别集 High.School.Musical.The.Musical.The.Holiday.Special.2020.2160p.DSNP.WEBRip.x265.10bit.HDR.DDP5.1.Atmos-ROCCaT 5.42GB  The cast of ?High School Musical: The Musical - The Series? share anecdotes of memorable holidays from their childhoods, best presents, favorite traditions, family photos, and New Year's resolutions.Video ID : 1 Format : HEVC Format/Info : High Efficiency Video Coding Format profile : Main [email protected]@High HDR format : SMPTE ST 2086, HDR10 compatible Codec ID : V_MPEGH/ISO/HEVC Duration : 44 min 33 s Bit rate : 16.6 Mb/s Width : 3 840 pixels Height : 2 160 pixels Display aspect ratio : 16:9 Frame rate mode : Constant Frame rate : 23.976 (24000/1001/189150) FPS Color space : YUV Chroma subsampling : 4:2:0 Bit depth : 10 bits Bits/(Pixel*Frame) : 0.084 Stream size : 5.18 GiB (96%) Default : Yes Forced : No Color range : Limited Color primaries : BT.2020 Transfer characteristics : PQ Matrix coefficients : BT.2020 non-constant Mastering display color primaries : Display P3 Mastering display luminance : min: 0.0000 cd/m2, max: 1000 cd/m2 Audio ID : 2 Format : E-AC-3 JOC Format/Info : Enhanced AC-3 with Joint Object Coding Commercial name : Dolby Digital Plus with Dolby Atmos Codec ID : A_EAC3 Duration : 44 min 33 s Bit rate mode : Constant Bit rate : 768 kb/s Channel(s) : 6 channels Channel layout : L R C LFE Ls Rs Sampling rate : 48.0 kHz Frame rate : 31.250 FPS (1536 SPF) Compression mode : Lossy Stream size : 245 MiB (4%) Language : English Service kind : Complete Main Default : Yes Forced : No Complexity index : 16 Number of dynamic objects : 15 Bed channel count : 1 channel Bed channel configuration : LFE Text #1 ID : 3 Format : UTF-8 Codec ID : S_TEXT/UTF8 Codec ID/Info : UTF-8 Plain Text Duration : 44 min 29 s Bit rate : 36 b/s Count of elements : 236 Stream size : 11.9 KiB (0%) Language : Danish Default : No Forced : No Text #2 ID : 4 Format : UTF-8 Codec ID : S_TEXT/UTF8 Codec ID/Info : UTF-8 Plain Text Duration : 44 min 30 s Bit rate : 50 b/s Count of elements : 400 Stream size : 16.5 KiB (0%) Language : German Default : No Forced : No Text #3 ID : 5 Format : UTF-8 Codec ID : S_TEXT/UTF8 Codec ID/Info : UTF-8 Plain Text Duration : 44 min 25 s Bit rate : 91 b/s Count of elements : 692 Stream size : 29.9 KiB (0%) Title : (SDH) Language : English Default : No Forced : No Text #4 ID : 6 Format : UTF-8 Codec ID : S_TEXT/UTF8 Codec ID/Info : UTF-8 Plain Text Duration : 44 min 30 s Bit rate : 42 b/s Count of elements : 400 Stream size : 13.8 KiB (0%) Language : Finnish Default : No Forced : No Text #5 ID : 7 Format : UTF-8 Codec ID : S_TEXT/UTF8 Codec ID/Info : UTF-8 Plain Text Duration : 44 min 30 s Bit rate : 50 b/s Count of elements : 397 Stream size : 16.5 KiB (0%) Language : French Default : No Forced : No Text #6 ID : 8 Format : UTF-8 Codec ID : S_TEXT/UTF8 Codec ID/Info : UTF-8 Plain Text Duration : 44 min 30 s Bit rate : 47 b/s Count of elements : 408 Stream size : 15.3 KiB (0%) Language : Italian Default : No Forced : No Text #7 ID : 9 Format : UTF-8 Codec ID : S_TEXT/UTF8 Codec ID/Info : UTF-8 Plain Text Duration : 44 min 30 s Bit rate : 42 b/s Count of elements : 299 Stream size : 13.7 KiB (0%) Language : Dutch Default : No Forced : No Text #8 ID : 10 Format : UTF-8 Codec ID : S_TEXT/UTF8 Codec ID/Info : UTF-8 Plain Text Duration : 44 min 30 s Bit rate : 46 b/s Count of elements : 407 Stream size : 15.1 KiB (0%) Language : Norwegian Default : No Forced : No Text #9 ID : 11 Format : UTF-8 Codec ID : S_TEXT/UTF8 Codec ID/Info : UTF-8 Plain Text Duration : 44 min 30 s Bit rate : 42 b/s Count of elements : 402 Stream size : 14.0 KiB (0%) Language : Polish Default : No Forced : No Text #10 ID : 12 Format : UTF-8 Codec ID : S_TEXT/UTF8 Codec ID/Info : UTF-8 Plain Text Duration : 44 min 30 s Bit rate : 50 b/s Count of elements : 408 Stream size : 16.3 KiB (0%) Language : Portuguese Default : No Forced : No Text #11 ID : 13 Format : UTF-8 Codec ID : S_TEXT/UTF8 Codec ID/Info : UTF-8 Plain Text Duration : 44 min 30 s Bit rate : 49 b/s Count of elements : 407 Stream size : 16.2 KiB (0%) Language : Spanish Default : No Forced : No Text #12 ID : 14 Format : UTF-8 Codec ID : S_TEXT/UTF8 Codec ID/Info : UTF-8 Plain Text Duration : 44 min 30 s Bit rate : 49 b/s Count of elements : 404 Stream size : 16.2 KiB (0%) Language : Swedish Default : No Forced : No

Discussion

Comments 0

Post Your Comment

Files in this torrent

FILENAMESIZE
High.School.Musical.The.Musical.The.Holiday.Special.2020.HDR.2160p.WEB-DL.DDP5.1.H.265-ROCCaT.mkv5.4 GB
RARBG.txt31 B

Alternative Torrents for 'High School Musical Musical Holiday Special DSNP bit HDR DDP. AtmosROCCaT'.

There are no alternative torrents found.