Greenland 2020 ITA ENG AC3 BluRay 1080p X264 Jeddak-MIRCrew

Torrent Details

Greenland 2020 iTA ENG AC3 BluRay 1080p x264 jeddak<span style=color:#fc9c6d>-MIRCrew</span>

NAME
Greenland 2020 iTA ENG AC3 BluRay 1080p x264 jeddak-MIRCrew.torrent
CATEGORY
Movies
INFOHASH
5bb5c326ffeea86c6e4b9082914c1ce01fd2430c
SIZE
2.6 GB in 1 file
ADDED
Uploaded on 03-01-2021 by our crawler pet called "Spidey".
SWARM
3 seeders & 2 peers
RATING
No votes yet.

Please login to vote for this torrent.


Description











Greenland





Titolo originale: Greenland

Conosciuto anche come:

Nazione: U.S.A.

Anno: 2020

Genere: Azione, Thriller

Durata: 119'

Regia: Ric Roman Waugh

Sito ufficiale:



Cast: Gerard Butler, Morena Baccarin, David Denman, Hope Davis, Roger Dale Floyd

Produzione: G-BASE, Anton, Riverstone Pictures

Distribuzione: Lucky Red

Data di uscita: 01 Ottobre 2020 (cinema)





Greenland, il film diretto da Ric Roman Waugh, segue la storia di Jeff (Gerard Butler) e della sua famiglia, alle prese con un disastro naturale.

Un asteroide soprannominato Clarke, sta per passare molto vicino alla Terra, tanto da essere visibile a occhio nudo. Purtroppo durante il passaggio la cometa si frantumerà in mille pezzi con conseguenze catastrofiche sulla superficie dell'intero pianeta. Diverse città di tutto il mondo saranno infatti rase al suolo. L'impatto di un enorme frammento di roccia provocherà morte e distruzione, destabilizzando interi paesi dal punto di vista politico, sociale ed economico.

In questo clima di panico e confusione l'obiettivo di Jeff sarà quello di portare in salvo sua moglie (Morena Baccarin) e suo figlio (Roger Dale Floyd) verso l'unico posto sicuro, in una lotta contro i tempo...
































General

Unique ID                   : 231350969486495798882377269372968848223 (0xAE0C937367F068CDBCFEB8249CB94B5F)

Complete name               : C:UsersangelDesktop#FILM DA CARICARE#Greenland.2020.iTA.ENG.AC3.BluRay.1080p.x264.jeddak-MIRCrew.mkv

Format                      : Matroska

Format version              : Version 2

File size                   : 2.60 GiB

Duration                    : 1 h 59 min

Overall bit rate            : 3 117 kb/s

Movie name                  : Greenland.2020.iTA.ENG.AC3.BluRay.1080p.x264.jeddak-MIRCrew

Encoded date                : UTC 2021-01-02 23:56:34

Writing application         : mkvmerge v5.6.0 ('Kenya Kane') built on May 27 2012 16:44:04

Writing library             : libebml v1.2.3 + libmatroska v1.3.0



Video

ID                          : 1

Format                      : AVC

Format/Info                 : Advanced Video Codec

Format profile              : [email protected]

Format settings             : CABAC / 4 Ref Frames

Format settings, CABAC      : Yes

Format settings, Reference  : 4 frames

Muxing mode                 : Header stripping

Codec ID                    : V_MPEG4/ISO/AVC

Duration                    : 1 h 59 min

Bit rate                    : 2 250 kb/s

Width                       : 1 920 pixels

Height                      : 804 pixels

Display aspect ratio        : 2.40:1

Frame rate mode             : Constant

Frame rate                  : 23.976 (24000/1001) FPS

Color space                 : YUV

Chroma subsampling          : 4:2:0

Bit depth                   : 8 bits

Scan type                   : Progressive

Bits/(Pixel*Frame)          : 0.061

Stream size                 : 1.80 GiB (69%)

Title                       : ...::: jeddak MIRCrew :::...

Writing library             : x264 core 148

Encoding settings           : cabac=1 / ref=3 / deblock=1:-1:-1 / analyse=0x3:0x113 / me=hex / subme=7 / psy=1 / psy_rd=1.00:0.15 / mixed_ref=1 / me_range=16 / chroma_me=1 / trellis=1 / 8x8dct=1 / cqm=0 / deadzone=21,11 / fast_pskip=1 / chroma_qp_offset=-3 / threads=6 / lookahead_threads=1 / sliced_threads=0 / nr=0 / decimate=1 / interlaced=0 / bluray_compat=0 / constrained_intra=0 / bframes=3 / b_pyramid=2 / b_adapt=1 / b_bias=0 / direct=1 / weightb=1 / open_gop=0 / weightp=2 / keyint=240 / keyint_min=24 / scenecut=40 / intra_refresh=0 / rc_lookahead=40 / rc=abr / mbtree=1 / bitrate=2250 / ratetol=1.0 / qcomp=0.60 / qpmin=0 / qpmax=69 / qpstep=4 / vbv_maxrate=62500 / vbv_bufsize=78125 / nal_hrd=none / filler=0 / ip_ratio=1.40 / aq=1:1.00

Default                     : Yes

Forced                      : No

Color range                 : Limited

Color primaries             : BT.709

Transfer characteristics    : BT.709

Matrix coefficients         : BT.709

Duration_Source             : General_Duration



Audio #1

ID                          : 2

Format                      : AC-3

Format/Info                 : Audio Coding 3

Commercial name             : Dolby Digital

Muxing mode                 : Header stripping

Codec ID                    : A_AC3

Duration                    : 1 h 59 min

Bit rate mode               : Constant

Bit rate                    : 448 kb/s

Channel(s)                  : 6 channels

Channel layout              : L R C LFE Ls Rs

Sampling rate               : 48.0 kHz

Frame rate                  : 31.250 FPS (1536 SPF)

Compression mode            : Lossy

Delay relative to video     : 2 s 217 ms

Stream size                 : 383 MiB (14%)

Title                       : iTA AC3 5.1

Language                    : Italian

Service kind                : Complete Main

Default                     : Yes

Forced                      : No

Duration_Source             : General_Duration



Audio #2

ID                          : 3

Format                      : AC-3

Format/Info                 : Audio Coding 3

Commercial name             : Dolby Digital

Muxing mode                 : Header stripping

Codec ID                    : A_AC3

Duration                    : 1 h 59 min

Bit rate mode               : Constant

Bit rate                    : 448 kb/s

Channel(s)                  : 6 channels

Channel layout              : L R C LFE Ls Rs

Sampling rate               : 48.0 kHz

Frame rate                  : 31.250 FPS (1536 SPF)

Compression mode            : Lossy

Delay relative to video     : -5 ms

Stream size                 : 383 MiB (14%)

Title                       : ENG AC3 5.1

Language                    : English

Service kind                : Complete Main

Default                     : No

Forced                      : No

Duration_Source             : General_Duration



Text #1

ID                          : 4

Format                      : UTF-8

Codec ID                    : S_TEXT/UTF8

Codec ID/Info               : UTF-8 Plain Text

Title                       : iTA FORCED

Language                    : Italian

Default                     : Yes

Forced                      : Yes



Text #2

ID                          : 5

Format                      : UTF-8

Codec ID                    : S_TEXT/UTF8

Codec ID/Info               : UTF-8 Plain Text

Title                       : iTA NON UDENTI

Language                    : Italian

Default                     : No

Forced                      : No



Text #3

ID                          : 6

Format                      : ASS

Codec ID                    : S_TEXT/ASS

Codec ID/Info               : Advanced Sub Station Alpha

Compression mode            : Lossless

Title                       : ENG REGULAR

Language                    : English

Default                     : No

Forced                      : No



Text #4

ID                          : 7

Format                      : ASS

Codec ID                    : S_TEXT/ASS

Codec ID/Info               : Advanced Sub Station Alpha

Compression mode            : Lossless

Title                       : ENG NON UDENTI

Language                    : English

Default                     : No

Forced                      : No



Menu

00:00:00.000                : :Chapter 1

00:10:58.950                : :Chapter 2

00:22:35.521                : :Chapter 3

00:32:00.502                : :Chapter 4

00:42:23.291                : :Chapter 5

00:53:30.040                : :Chapter 6

01:04:47.509                : :Chapter 7

01:11:32.205                : :Chapter 8

01:22:15.264                : :Chapter 9

01:34:12.814                : :Chapter 10

01:42:04.285                : :Chapter 11

01:54:06.465                : :Chapter 12

Discussion

Comments 0

Post Your Comment

Files in this torrent

FILENAMESIZE
Greenland.2020.iTA.ENG.AC3.BluRay.1080p.x264.jeddak-MIRCrew.mkv2.6 GB

Alternative Torrents for 'Greenland ENG BluRay jeddak'.

TORRENT NAMEADDEDSIZESEEDSPEERSHEALTH
1/3/20212.6 GB32