Greenland 2020 ITA-ENG Bluray 2160p X265-CYBER

Torrent Details


Greenland 2020 iTA-ENG Bluray 2160p x265-CYBER

NAME
Greenland 2020 iTA-ENG Bluray 2160p x265-CYBER.torrent
CATEGORY
Movies
INFOHASH
466911e7512053ada6503f37e73ac7b5ceefcc26
SIZE
19 GB in 1 file
ADDED
Uploaded on 06-01-2021 by our crawler pet called "Spidey".
SWARM
21 seeders & 33 peers
RATING
No votes yet.

Please login to vote for this torrent.


Description

DATI - TRAMA

Data di uscita: 08 ottobre 2020
Genere: Azione, Thriller
Anno: 2020
Regia: Ric Roman Waugh
Attori: Gerard Butler, Morena Baccarin, Roger Dale Floyd, David Denman, Brandon Quinn, Hayes Mercure, Andrew Bachelor, Gary Weeks, Joshua Mikel, Claire Bronson
Paese: USA, Gran Bretagna
Durata: 119 min
Distribuzione: Universal Pictures e Lucky Red

Una catastrofe mondiale minaccia di distruggere l'umanità. John Garty ha solo quattro giorni per portare la famiglia in un bunker militare segreto. Mentre il tempo stringe e il mondo è in prenda al caos, dovrà fare tutto ciò che è in suo potere per portare i suoi cari da New York alla Groenlandia.

IMMAGINI





REPORT

General
Unique ID : 132522466706404830649723765867960715075 (0x63B2E610C52A29ECAA13B43A6F9DC743)
Complete name : D:Greenland.2020Greenland.2020.iTA-ENG.Bluray.2160p.x265-CYBER.mkv
Format : Matroska
Format version : Version 4
File size : 19.0 GiB
Duration : 1 h 59 min
Overall bit rate : 22.7 Mb/s
Encoded date : UTC 2021-01-02 19:28:44
Writing application : mkvmerge v51.0.0 ('I Wish') 64-bit
Writing library : libebml v1.4.0 + libmatroska v1.6.2

Video
ID : 1
Format : HEVC
Format/Info : High Efficiency Video Coding
Format profile : Main [email protected]@High
HDR format : SMPTE ST 2086, HDR10 compatible
Codec ID : V_MPEGH/ISO/HEVC
Duration : 1 h 59 min
Bit rate : 21.7 Mb/s
Width : 3 840 pixels
Height : 1 604 pixels
Display aspect ratio : 2.40:1
Frame rate mode : Constant
Frame rate : 23.976 (24000/1001) FPS
Color space : YUV
Chroma subsampling : 4:2:0 (Type 2)
Bit depth : 10 bits
Bits/(Pixel*Frame) : 0.147
Stream size : 18.1 GiB (95%)
Title : UHDRip
Writing library : x265 3.4+26-ga82c6c7a7:[Windows][GCC 10.2.1][64 bit] 10bit
Encoding settings : cpuid=1176575 / frame-threads=5 / numa-pools=36 / wpp / no-pmode / no-pme / no-psnr / no-ssim / log-level=2 / input-csp=1 / input-res=3840x1604 / interlace=0 / total-frames=171901 / level-idc=51 / high-tier=1 / uhd-bd=0 / ref=4 / no-allow-non-conformance / repeat-headers / annexb / aud / hrd / info / hash=0 / no-temporal-layers / open-gop / min-keyint=23 / keyint=250 / gop-lookahead=0 / bframes=4 / b-adapt=2 / b-pyramid / bframe-bias=0 / rc-lookahead=25 / lookahead-slices=4 / scenecut=40 / hist-scenecut=0 / radl=0 / no-splice / no-intra-refresh / ctu=64 / min-cu-size=8 / rect / no-amp / max-tu-size=32 / tu-inter-depth=1 / tu-intra-depth=1 / limit-tu=0 / rdoq-level=2 / dynamic-rd=0.00 / no-ssim-rd / signhide / no-tskip / nr-intra=0 / nr-inter=0 / no-constrained-intra / strong-intra-smoothing / max-merge=3 / limit-refs=3 / limit-modes / me=3 / subme=3 / merange=57 / temporal-mvp / no-frame-dup / no-hme / weightp / no-weightb / no-analyze-src-pics / deblock=-3:-3 / no-sao / no-sao-non-deblock / rd=4 / selective-sao=0 / no-early-skip / rskip / no-fast-intra / no-tskip-fast / no-cu-lossless / no-b-intra / no-splitrd-skip / rdpenalty=0 / psy-rd=2.00 / psy-rdoq=1.00 / no-rd-refine / no-lossless / cbqpoffs=0 / crqpoffs=0 / rc=crf / crf=14.0 / qcomp=0.60 / qpstep=4 / stats-write=0 / stats-read=0 / vbv-maxrate=160000 / vbv-bufsize=160000 / vbv-init=0.9 / min-vbv-fullness=50.0 / max-vbv-fullness=80.0 / crf-max=0.0 / crf-min=0.0 / ipratio=1.40 / pbratio=1.30 / aq-mode=2 / aq-strength=1.00 / cutree / zone-count=0 / no-strict-cbr / qg-size=32 / no-rc-grain / qpmax=69 / qpmin=0 / no-const-vbv / sar=1 / overscan=0 / videoformat=5 / range=0 / colorprim=9 / transfer=16 / colormatrix=9 / chromaloc=1 / chromaloc-top=2 / chromaloc-bottom=2 / display-window=0 / master-display=G(13250,34500)B(7500,3000)R(34000,16000)WP(15635,16450)L(10000000,0) / cll=1000,638 / min-luma=0 / max-luma=1023 / log2-max-poc-lsb=8 / vui-timing-info / vui-hrd-info / slices=1 / no-opt-qp-pps / no-opt-ref-list-length-pps / no-multi-pass-opt-rps / scenecut-bias=0.05 / hist-threshold=0.03 / no-opt-cu-delta-qp / no-aq-motion / hdr10 / hdr10-opt / no-dhdr10-opt / no-idr-recovery-sei / analysis-reuse-level=0 / analysis-save-reuse-level=0 / analysis-load-reuse-level=0 / scale-factor=0 / refine-intra=0 / refine-inter=0 / refine-mv=1 / refine-ctu-distortion=0 / no-limit-sao / ctu-info=0 / no-lowpass-dct / refine-analysis-type=0 / copy-pic=1 / max-ausize-factor=1.0 / no-dynamic-refine / no-single-sei / no-hevc-aq / no-svt / no-field / qp-adaptation-range=1.00 / no-scenecut-aware-qpconformance-window-offsets / right=0 / bottom=0 / decoder-max-rate=0 / no-vbv-live-multi-pass
Language : English
Default : Yes
Forced : No
Color range : Limited
Color primaries : BT.2020
Transfer characteristics : PQ
Matrix coefficients : BT.2020 non-constant
Mastering display color primaries : Display P3
Mastering display luminance : min: 0.0000 cd/m2, max: 1000 cd/m2
Maximum Content Light Level : 1000 cd/m2
Maximum Frame-Average Light Level : 638 cd/m2

Audio #1
ID : 2
Format : AC-3
Format/Info : Audio Coding 3
Commercial name : Dolby Digital
Codec ID : A_AC3
Duration : 1 h 59 min
Bit rate mode : Constant
Bit rate : 384 kb/s
Channel(s) : 6 channels
Channel layout : L R C LFE Ls Rs
Sampling rate : 48.0 kHz
Frame rate : 31.250 FPS (1536 SPF)
Compression mode : Lossy
Stream size : 329 MiB (2%)
Title : AC3
Language : Italian
Service kind : Complete Main
Default : Yes
Forced : No

Audio #2
ID : 3
Format : AC-3
Format/Info : Audio Coding 3
Commercial name : Dolby Digital
Codec ID : A_AC3
Duration : 1 h 59 min
Bit rate mode : Constant
Bit rate : 640 kb/s
Channel(s) : 6 channels
Channel layout : L R C LFE Ls Rs
Sampling rate : 48.0 kHz
Frame rate : 31.250 FPS (1536 SPF)
Compression mode : Lossy
Stream size : 547 MiB (3%)
Title : AC3
Language : English
Service kind : Complete Main
Default : No
Forced : No

Text #1
ID : 4
Format : UTF-8
Codec ID : S_TEXT/UTF8
Codec ID/Info : UTF-8 Plain Text
Duration : 1 h 2 min
Bit rate : 0 b/s
Count of elements : 9
Stream size : 400 Bytes (0%)
Title : Forced
Language : Italian
Default : Yes
Forced : No

Text #2
ID : 5
Format : UTF-8
Codec ID : S_TEXT/UTF8
Codec ID/Info : UTF-8 Plain Text
Duration : 1 h 52 min
Bit rate : 67 b/s
Count of elements : 1775
Stream size : 55.9 KiB (0%)
Title : Non Udenti
Language : English
Default : No
Forced : No

Menu
00:00:00.000 : en:Opening Credits
00:01:00.269 : en:Construction Site
00:02:20.098 : en:An Uncomfortable Return Home
00:05:57.315 : en:Father Son Time
00:08:56.244 : en:Birthday Party Prep
00:10:56.948 : en:Presidential Alert
00:14:07.430 : en:Clark Hits
00:18:50.588 : en:Tough Decisions
00:22:33.269 : en:Driving To The Base
00:26:32.049 : en:Trying To Get On The Plane
00:37:49.434 : en:Chaos At The Base
00:42:21.080 : en:Looters
00:47:30.473 : en:Broken Phone Calls
00:50:09.840 : en:A Ride Up North
00:53:28.038 : en:Ralph Has An Idea
00:56:45.527 : en:Hazards On The Road
01:03:21.089 : en:Lying To Get On The Base
01:06:54.302 : en:Searching For Nathan
01:11:29.410 : en:Reunited
01:19:34.019 : en:Making A Plan
01:22:13.011 : en:Making Amends
01:27:31.913 : en:Driving To Canada
01:34:10.603 : en:Arrival At The Airport
01:41:06.143 : en:Arrival In Greenland
01:46:00.020 : en:Getting To The Bunker | F

GOOD DOWNLOAD

Discussion

Comments 0

Post Your Comment

Files in this torrent

FILENAMESIZE
Greenland.2020.iTA-ENG.Bluray.2160p.x265-CYBER.mkv19 GB

Alternative Torrents for 'Greenland ENG Bluray CYBER'.

TORRENT NAMEADDEDSIZESEEDSPEERSHEALTH
1/6/202119 GB2133