Centigrade (2020) 720p English Movie BluRay X264 AAC By Full4Movies

Torrent Details

Centigrade <span style=color:#777>(2020)</span> 720p English Movie BluRay x264 AAC <span style=color:#fc9c6d>By Full4Movies</span>

NAME
Centigrade (2020) 720p English Movie BluRay x264 AAC By Full4Movies.torrent
CATEGORY
Movies
INFOHASH
a1d3cb1132c363d6a8770c3eaef5077755316fa3
SIZE
795 MB in 1 file
ADDED
Uploaded on 07-01-2021 by our crawler pet called "Spidey".
SWARM
1 seeders & 0 peers
RATING
No votes yet.

Please login to vote for this torrent.


Description





Visit Us = https://full4movies.xyz/



General

Complete name                  : Centigrade (2020) 720p English Movie BluRay x264 AAC By Full4Movies.mkv

Format                         : Matroska

Format version                 : Version 4

File size                      : 795 MiB

Duration                       : 1 h 29 min

Overall bit rate               : 1 246 kb/s

Encoded date                   : UTC 2021-01-07 08:55:48

Writing application            : mkvmerge v8.0.0 ('Til The Day That I Die') 32bit

Writing library                : libebml v1.3.1 + libmatroska v1.4.2



Video

ID                             : 1

Format                         : AVC

Format/Info                    : Advanced Video Codec

Format profile                 : [email protected]

Format settings                : CABAC / 4 Ref Frames

Format settings, CABAC         : Yes

Format settings, Reference fra : 4 frames

Codec ID                       : V_MPEG4/ISO/AVC

Duration                       : 1 h 29 min

Bit rate                       : 1 148 kb/s

Width                          : 1 280 pixels

Height                         : 528 pixels

Display aspect ratio           : 2.40:1

Frame rate mode                : Constant

Frame rate                     : 23.976 (24000/1001) FPS

Color space                    : YUV

Chroma subsampling             : 4:2:0

Bit depth                      : 8 bits

Scan type                      : Progressive

Bits/(Pixel*Frame)             : 0.071

Stream size                    : 733 MiB (92%)

Writing library                : x264 core 157

Default                        : Yes

Forced                         : No



Audio

ID                             : 2

Format                         : AAC LC

Format/Info                    : Advanced Audio Codec Low Complexity

Codec ID                       : A_AAC-2

Duration                       : 1 h 29 min

Bit rate                       : 96.0 kb/s

Channel(s)                     : 2 channels

Channel layout                 : L R

Sampling rate                  : 48.0 kHz

Frame rate                     : 46.875 FPS (1024 SPF)

Compression mode               : Lossy

Stream size                    : 61.3 MiB (8%)

Language                       : English

Default                        : Yes

Forced                         : No



Screen Shoots

Discussion

Comments 0

Post Your Comment

Files in this torrent

FILENAMESIZE
Centigrade (2020) 720p English Movie BluRay x264 AAC By Full4Movies.mkv795.4 MB

Alternative Torrents for 'Centigrade English Movie BluRay AAC'.

TORRENT NAMEADDEDSIZESEEDSPEERSHEALTH
1/7/2021795 MB10