Wolfwalkers - Il Popolo Dei Lupi (2020) 1080p H264 Ac3 Ita Eng Sub Ita Eng-MIRCrew

Torrent Details


Wolfwalkers - Il popolo dei lupi <span style=color:#777>(2020)</span> 1080p h264 Ac3 Ita Eng Sub Ita Eng<span style=color:#fc9c6d>-MIRCrew</span>

NAME
Wolfwalkers - Il popolo dei lupi (2020) 1080p h264 Ac3 Ita Eng Sub Ita Eng-MIRCrew.torrent
CATEGORY
Movies
INFOHASH
660e57f531d633c498dc344bf6110b1b4de87a93
SIZE
2.2 GB in 4 files
ADDED
Uploaded on 07-01-2021 by our crawler pet called "Spidey".
SWARM
11 seeders & 0 peers
RATING
No votes yet.

Please login to vote for this torrent.


Description

Wolfwalkers - Il popolo dei lupi (2020) 1080p H264 Ac3 Ita Eng Sub Ita Eng-MIRCrew











NO FOUND ONLY ORIGINAL RELEASE



My release is always in double track audio italian and Original audio

for select it use VLC or dvd player home

not use wmp



Wolfwalkers - Il popolo dei lupi (2020)



Quality MIRCrew in HD 1080p da  2,2 gb





















Titolo originale Wolfwalkers

Lingua originale inglese

Paese di produzione Irlanda, Stati Uniti d'America

Anno 2020

Durata 103 min

Genere animazione, avventura

Regia Tomm Moore, Ross Stewart

Sceneggiatura Will Collins







Doppiatori originali



   Honor Kneafsey: Robyn

   Eva Whittaker: Mebh

   Sean Bean: Bill

   Simon McBurney: Lord Protector



Doppiatori italiani



   Cinzia Virale: Robyn

   Sofia Fronzi: Mebh

   Massimo Bitossi: Bill

   Christian Iansante: Lord Protector









Robyn, una giovane apprendista cacciatrice, viene in Irlanda con suo padre per cacciare l’ultimo branco di Lupi, che ostacolano la deforestazione. Quando Robyn salva Mebh (una ragazza nativa selvaggia che quando dorme, si trasforma in un lupo), la loro amicizia ha inizio. Robyn comincia a scoprire il mondo dei Wolfwalkers e lei stessa diventerà ciò che suo padre ha il compito di distruggere.







A young apprentice hunter and her father journey to Ireland to help wipe out the last wolf pack. But everything changes when she befriends a free-spirited girl from a mysterious tribe rumored to transform into wolves by night.



 


























General



Complete name                            : Wolfwalkers - Il popolo dei lupi (2020) 1080p H264Wolfwalkers - Il popolo dei lupi (2020).mkv

Format                                   : Matroska

Format version                           : Version 2

File size                                : 2.22 GiB

Duration                                 : 1h 42mn

Overall bit rate                         : 3 094 Kbps

Movie name                               : MIRCrew

Encoded date                             : UTC 2021-01-06 15:25:52

Writing application                      : Lavf54.63.100

Writing library                          : Lavf54.63.100

COMMENT                                  : MIRCrew



Video

ID                                       : 1

Format                                   : AVC

Format/Info                              : Advanced Video Codec

Format profile                           : [email protected]

Format settings, CABAC                   : Yes

Format settings, ReFrames                : 2 frames

Codec ID                                 : V_MPEG4/ISO/AVC

Duration                                 : 1h 42mn

Bit rate                                 : 2 600 Kbps

Width                                    : 1 920 pixels

Height                                   : 1 040 pixels

Display aspect ratio                     : 16:9

Frame rate mode                          : Variable

Frame rate                               : 23.976 fps

Color space                              : YUV

Chroma subsampling                       : 4:2:0

Bit depth                                : 8 bits

Scan type                                : Progressive

Bits/(Pixel*Frame)                       : 0.054

Stream size                              : 1.80 GiB (81%)

Writing library                          : x264 core 130 r2273

Encoding settings                        : cabac=1 / ref=2 / deblock=1:-1:-1 / analyse=0x1:0x131 / me=hex / subme=7 / psy=1 / psy_rd=1.00:0.10 / mixed_ref=0 / me_range=16 / chroma_me=1 / trellis=1 / 8x8dct=0 / cqm=0 / deadzone=21,11 / fast_pskip=1 / chroma_qp_offset=-3 / threads=9 / lookahead_threads=1 / sliced_threads=0 / nr=0 / decimate=1 / interlaced=0 / bluray_compat=0 / constrained_intra=0 / bframes=3 / b_pyramid=0 / b_adapt=1 / b_bias=0 / direct=3 / weightb=1 / open_gop=0 / weightp=2 / keyint=230 / keyint_min=23 / scenecut=40 / intra_refresh=0 / rc_lookahead=40 / rc=abr / mbtree=1 / bitrate=2600 / ratetol=1.0 / qcomp=0.60 / qpmin=10 / qpmax=69 / qpstep=4 / vbv_maxrate=24000 / vbv_bufsize=24000 / nal_hrd=none / ip_ratio=1.40 / aq=1:1.00

Language                                 : Italian

Default                                  : Yes

Forced                                   : No

DURATION                                 : 01:42:32.146000000

NUMBER_OF_FRAMES                         : 147504

NUMBER_OF_BYTES                          : 7471615102

_STATISTICS_WRITING_APP                  : mkvmerge v49.0.0 ('Sick Of Losing Soulmates') 64-bit

_STATISTICS_WRITING_DATE_UTC             : 2020-12-28 13:03:04

_STATISTICS_TAGS                         : BPS DURATION NUMBER_OF_FRAMES NUMBER_OF_BYTES



Audio #1

ID                                       : 2

Format                                   : AC-3

Format/Info                              : Audio Coding 3

Mode extension                           : CM (complete main)

Codec ID                                 : A_AC3

Duration                                 : 1h 42mn

Bit rate mode                            : Constant

Bit rate                                 : 256 Kbps

Channel(s)                               : 2 channels

Channel positions                        : Front: L R

Sampling rate                            : 48.0 KHz

Bit depth                                : 16 bits

Compression mode                         : Lossy

Delay relative to video                  : 1mn 5s

Stream size                              : 188 MiB (8%)

Title                                    : Italian

Language                                 : Italian

Default                                  : Yes

Forced                                   : No

DURATION                                 : 01:42:32.160000000

NUMBER_OF_FRAMES                         : 192255

NUMBER_OF_BYTES                          : 196869120

_STATISTICS_WRITING_APP                  : mkvmerge v49.0.0 ('Sick Of Losing Soulmates') 64-bit

_STATISTICS_WRITING_DATE_UTC             : 2020-12-28 13:03:04

_STATISTICS_TAGS                         : BPS DURATION NUMBER_OF_FRAMES NUMBER_OF_BYTES



Audio #2

ID                                       : 3

Format                                   : AC-3

Format/Info                              : Audio Coding 3

Mode extension                           : CM (complete main)

Codec ID                                 : A_AC3

Duration                                 : 1h 42mn

Bit rate mode                            : Constant

Bit rate                                 : 256 Kbps

Channel(s)                               : 2 channels

Channel positions                        : Front: L R

Sampling rate                            : 48.0 KHz

Bit depth                                : 16 bits

Compression mode                         : Lossy

Delay relative to video                  : 1mn 5s

Stream size                              : 188 MiB (8%)

Title                                    : English

Language                                 : English

Default                                  : No

Forced                                   : No

DURATION                                 : 01:42:32.160000000

NUMBER_OF_FRAMES                         : 192255

NUMBER_OF_BYTES                          : 344520960

_STATISTICS_WRITING_APP                  : mkvmerge v49.0.0 ('Sick Of Losing Soulmates') 64-bit

_STATISTICS_WRITING_DATE_UTC             : 2020-12-28 13:03:04

_STATISTICS_TAGS                         : BPS DURATION NUMBER_OF_FRAMES NUMBER_OF_BYTES




Discussion

Comments 0

Post Your Comment

Files in this torrent

FILENAMESIZE
Wolfwalkers - Il popolo dei lupi (2020) 1080p h264 Ac3 Ita Eng Sub Ita Eng-MIRCrew.eng.srt79.3 KB
Wolfwalkers - Il popolo dei lupi (2020) 1080p h264 Ac3 Ita Eng Sub Ita Eng-MIRCrew.ita.srt81.9 KB
Wolfwalkers - Il popolo dei lupi (2020) 1080p h264 Ac3 Ita Eng Sub Ita Eng-MIRCrew.mkv2.2 GB
Wolfwalkers - Il popolo dei lupi (2020) 1080p h264 Ac3 Ita Eng Sub Ita Eng-MIRCrew.srt5.6 KB

Alternative Torrents for 'Wolfwalkers Il popolo dei lupi Eng Sub Eng'.

TORRENT NAMEADDEDSIZESEEDSPEERSHEALTH
1/7/20212.2 GB110