The Harvey Girls 1946 BDRip 1080p

Torrent Details

The Harvey Girls 1946 BDRip 1080p

NAME
The Harvey Girls 1946 BDRip 1080p.torrent
CATEGORY
Movies
INFOHASH
7da25f93ef186d6417d0a8159cb8ab4707c1c161
SIZE
8.5 GB in 1 file
ADDED
Uploaded on 08-01-2021 by our crawler pet called "Spidey".
SWARM
0 seeders & 0 peers
RATING
No votes yet.

Please login to vote for this torrent.


Description

Информация о фильме

Название: Девушки Харви

Оригинальное название: The Harvey Girls

Год выхода: 1946

Жанр: Mюзикл, комедия, вестерн

Режиссер: Джордж Сидни

В ролях: Джуди Гарлэнд, Джон Ходиак, Рэй Болджер, Престон Фостер, Вирджиния О`Брайэн, Анджела Лэнсбери, Марджори Мэйн, Чилл Уиллс, Кенни Бэйкер (II), Сид Черисс, Джек Ламберт, Рут Брэйди, Эдвард Эрл, Джин Эштон, Элинор Бэйли



О фильме:

Сьюзен Брэдли - молодая девушка из штата Огайо. Она отправляется в Аризону выйти замуж по переписке. По дороге Сьюзен знакомится с веселыми и жизнерадостными подругами, работающими в недавно построенной закусочной под названием «Харви».Прибыв в городок Брэдли выясняет, что ее обманули. Вместо умного и романтичного героя «по переписке», ее встречает грубый и «немытый» ковбой, а письма ей писал, заключив пари, владелец салуна. Сьюзен некуда податься и она с радостью присоединяется к компании девушек и остается в городке. Местечко, где установлена новая закусочная, славится своим неприятием чужаков и отрицанием всего новаторского. Однако девушки решили перевоспитать городок...









Страна: США

Студия: Metro-Goldwyn-Mayer (MGM)

Продолжительность: 01:41:00

Перевод: Профессиональный многоголосый



Файл

Кодек: x.264

Качество: BDRip 1080p

Видео: MPEG-4 AVC, 11.4 Mбит/с, 1480x1080, 23.976 кадр/с

Аудио #1: Русский (АС3, 2 ch, 192 Кбит/с, 48.0 KHz) Профессиональный (многоголосый, закадровый)

Аудио #2: Английский (АС3, 2 ch, 192 Кбит/с, 48.0 KHz)

Аудио #3: Английский (АС3, 2 ch, 192 Кбит/с, 48.0 KHz) Комментарий режиссера Джорджа Сидни

Субтитры: английские

MediaInfo Источник: The.Harvey.Girls.1946.1080p.BluRay.x264-HANDJOB

General

Unique ID : 233170163180537738074800741804419557935 (0xAF6AF09FF43EA0388D8C526C7E63AA2F)

Complete name : The.Harvey.Girls.1946.BDRip.1080p.mkv

Format : Matroska

Format version : Version 4

File size : 8.47 GiB

Duration : 1 h 41 min

Overall bit rate : 12.0 Mb/s

Movie name : The Harvey Girls [1946] 1080p BluRay - HJ

Encoded date : UTC 2021-01-08 09:45:40

Writing application : mkvmerge v7.1.0 ('Good Love') 64bit built on Jul 27 2014 13:06:55

Writing library : libebml v1.3.0 + libmatroska v1.4.1



Video

ID : 1

Format : AVC

Format/Info : Advanced Video Codec

Format profile : [email protected]

Format settings : CABAC / 5 Ref Frames

Format settings, CABAC : Yes

Format settings, Reference fra : 5 frames

Codec ID : V_MPEG4/ISO/AVC

Duration : 1 h 41 min

Bit rate : 11.4 Mb/s

Width : 1 480 pixels

Height : 1 080 pixels

Display aspect ratio : 1.370

Frame rate mode : Constant

Frame rate : 23.976 (24000/1001) FPS

Color space : YUV

Chroma subsampling : 4:2:0

Bit depth : 8 bits

Scan type : Progressive

Bits/(Pixel*Frame) : 0.298

Stream size : 8.06 GiB (95%)

Writing library : x264 core 157 r2935 545de2f

Encoding settings : cabac=1 / ref=5 / deblock=1:-3:-3 / analyse=0x3:0x133 / me=umh / subme=10 / psy=1 / psy_rd=1.00:0.00 / mixed_ref=1 / me_range=32 / chroma_me=1 / trellis=2 / 8x8dct=1 / cqm=0 / deadzone=21,11 / fast_pskip=0 / chroma_qp_offset=-2 / threads=34 / lookahead_threads=8 / sliced_threads=0 / nr=0 / decimate=0 / interlaced=0 / bluray_compat=0 / constrained_intra=0 / bframes=16 / b_pyramid=2 / b_adapt=2 / b_bias=0 / direct=3 / weightb=1 / open_gop=0 / weightp=2 / keyint=240 / keyint_min=24 / scenecut=40 / intra_refresh=0 / rc_lookahead=60 / rc=crf / mbtree=0 / crf=20.0 / qcomp=0.60 / qpmin=0 / qpmax=69 / qpstep=4 / vbv_maxrate=62500 / vbv_bufsize=78125 / crf_max=0.0 / nal_hrd=none / filler=0 / ip_ratio=1.40 / pb_ratio=1.30 / aq=2:1.00

Language : English

Default : Yes

Forced : No

Color range : Limited

Color primaries : BT.709

Transfer characteristics : BT.709

Matrix coefficients : BT.709



Audio #1

ID : 2

Format : AC-3

Format/Info : Audio Coding 3

Commercial name : Dolby Digital

Codec ID : A_AC3

Duration : 1 h 41 min

Bit rate mode : Constant

Bit rate : 192 kb/s

Channel(s) : 2 channels

Channel layout : L R

Sampling rate : 48.0 kHz

Frame rate : 31.250 FPS (1536 SPF)

Compression mode : Lossy

Stream size : 139 MiB (2%)

Title : MVO

Language : Russian

Service kind : Complete Main

Default : Yes

Forced : No



Audio #2

ID : 3

Format : AC-3

Format/Info : Audio Coding 3

Commercial name : Dolby Digital

Codec ID : A_AC3

Duration : 1 h 41 min

Bit rate mode : Constant

Bit rate : 192 kb/s

Channel(s) : 2 channels

Channel layout : L R

Sampling rate : 48.0 kHz

Frame rate : 31.250 FPS (1536 SPF)

Compression mode : Lossy

Stream size : 139 MiB (2%)

Language : English

Service kind : Complete Main

Default : No

Forced : No



Audio #3

ID : 4

Format : AC-3

Format/Info : Audio Coding 3

Commercial name : Dolby Digital

Codec ID : A_AC3

Duration : 1 h 41 min

Bit rate mode : Constant

Bit rate : 192 kb/s

Channel(s) : 2 channels

Channel layout : L R

Sampling rate : 48.0 kHz

Frame rate : 31.250 FPS (1536 SPF)

Compression mode : Lossy

Stream size : 139 MiB (2%)

Title : Commentary by director George Sidney

Language : English

Service kind : Complete Main

Default : No

Forced : No



Text

ID : 5

Format : UTF-8

Codec ID : S_TEXT/UTF8

Codec ID/Info : UTF-8 Plain Text

Duration : 1 h 34 min

Bit rate : 43 b/s

Count of elements : 722

Stream size : 30.1 KiB (0%)

Language : English

Default : No

Forced : No



Menu

00:00:00.000 : :Chapter 1

00:02:02.164 : :Chapter 2

00:02:37.407 : :Chapter 3

00:04:56.838 : :Chapter 4

00:10:54.070 : :Chapter 5

00:15:06.197 : :Chapter 6

00:19:56.696 : :Chapter 7

00:23:24.236 : :Chapter 8

00:27:34.319 : :Chapter 9

00:30:09.099 : :Chapter 10

00:32:27.446 : :Chapter 11

00:34:28.024 : :Chapter 12

00:40:06.362 : :Chapter 13

00:41:54.303 : :Chapter 14

00:48:45.756 : :Chapter 15

00:53:19.071 : :Chapter 16

00:56:29.344 : :Chapter 17

00:59:40.827 : :Chapter 18

01:03:56.291 : :Chapter 19

01:07:15.823 : :Chapter 20

01:11:19.567 : :Chapter 21

01:15:28.858 : :Chapter 22

01:19:14.083 : :Chapter 23

01:25:21.950 : :Chapter 24

01:28:22.839 : :Chapter 25

01:31:45.542 : :Chapter 26

01:34:26.870 : :Chapter 27

01:37:15.496 : :Chapter 28

01:39:55.823 : :Chapter 29

01:40:53.464 : :Chapter 30

Скриншоты

Discussion

Comments 0

Post Your Comment

Files in this torrent

FILENAMESIZE
The.Harvey.Girls.1946.BDRip.1080p.mkv8.5 GB

Alternative Torrents for 'Harvey Girls'.

TORRENT NAMEADDEDSIZESEEDSPEERSHEALTH
1/8/20218.5 GB00
1/6/2021928 MB00
1/6/20211.7 GB00
1/6/20211.9 GB00
1/6/20211.2 GB00
1/5/20218.3 GB00
4/19/2020953 MB00
1/14/20202.9 GB00
1/13/202011.2 GB00
1/13/20205 GB00
12/28/20194.8 GB00
12/14/201910.1 GB00
12/14/20194.7 GB00
11/27/20192.9 GB00
11/11/20192.9 GB00