A Te Che Conosci L Azzurro Del Cielo-Her Blue Sky (2019) ITA-JAP Ac3 5.1 BDRip 1080p H264 [ArMor]

Torrent Details


A te che conosci l azzurro del cielo-Her Blue Sky (2019) ITA-JAP Ac3 5.1 BDRip 1080p H264 <span style=color:#fc9c6d>[ArMor]</span>

NAME
A te che conosci l azzurro del cielo-Her Blue Sky (2019) ITA-JAP Ac3 5.1 BDRip 1080p H264 [ArMor].torrent
CATEGORY
Anime
INFOHASH
ba6a3fcc1b13417ae2efd0bba44f5a1337ceb9ff
SIZE
4.3 GB in 4 files
ADDED
Uploaded on 08-01-2021 by our crawler pet called "Spidey".
SWARM
0 seeders & 0 peers
RATING
No votes yet.

Please login to vote for this torrent.


Description













Regista: Tatsuyuki Nagai

Genere: Animazione, Drammatico, Fantasy

Anno: 2019

Paese: Giappone

Durata: 112 min

Data di uscita: N.D.

Distribuzione: Koch Media







Shion Wakayama, Ryō Yoshizawa, Riho Yoshioka







Her Blue Sky, film diretto da Tatsuyuki Nagai, racconta la storia di Aoi, studentessa al secondo anno del liceo, che aspira a sfondare come musicista. La ragazza ha perso i genitori tredici anni fa in un incidente stradale e da allora vive con sua sorella maggiore Akane, che ha rinunciato al suo sogno di trasferirsi a Tokyo con il suo ex fidanzato Shinnosuke per restare accanto a lei.

Il giovane, però, torna nella sua vecchia cittadina per esibirsi in un festival locale come turnista per il celebre cantante Dankichi. Contemporaneamente Shinno, uno Shinnosuke proveniente dal passato, appare misteriosamente e Aoi finirà per innamorarsi per la prima volta in vita sua.







Second-year high school student Aoi Aioi is an aspiring musician Aoi Aioi. Her older sister Akane's ex-boyfriend Shinnosuke Kanomura is a struggling guitarist. Aoi and Akane's parents passed away in an accident 13 years ago, and Akane gave up her ambition of going to Tokyo with Shinnosuke to take care of Aoi. Since then, Aoi has felt indebted to her older sister. One day, she is invited to perform at a music festival as a session musician by a famous en singer named Dankichi. At the same time, Shinnosuke returns to Aoi and Akane's town after a long time away. Then, Shinno mysteriously appears- who is actually Shinnosuke from 13 years ago after traveling from the past to the present-and Aoi falls in love for the first time.

























General

Unique ID                                : 169668498019637075161269379055825109383 (0x7FA4F6CEF6D38F0E131FA7EEC826C187)

Complete name                            : A te che conosci l.azzurro del cielo-Her Blue Sky (2019) ITA-JAP Ac3 5.1 BDRip 1080p H264 [ArMor].mkv

Format                                   : Matroska

Format version                           : Version 4

File size                                : 4.35 GiB

Duration                                 : 1 h 46 min

Overall bit rate                         : 5 846 kb/s

Encoded date                             : UTC 2021-01-07 15:18:35

Writing application                      : mkvmerge v52.0.0 ('Secret For The Mad') 64-bit

Writing library                          : libebml v1.4.1 + libmatroska v1.6.2 / Lavf58.29.100



Video

ID                                       : 1

Format                                   : AVC

Format/Info                              : Advanced Video Codec

Format profile                           : [email protected]

Format settings                          : CABAC / 4 Ref Frames

Format settings, CABAC                   : Yes

Format settings, Reference frames        : 4 frames

Codec ID                                 : V_MPEG4/ISO/AVC

Duration                                 : 1 h 46 min

Bit rate                                 : 5 000 kb/s

Width                                    : 1 920 pixels

Height                                   : 1 080 pixels

Display aspect ratio                     : 16:9

Frame rate mode                          : Constant

Frame rate                               : 23.976 (24000/1001) FPS

Color space                              : YUV

Chroma subsampling                       : 4:2:0

Bit depth                                : 8 bits

Scan type                                : Progressive

Bits/(Pixel*Frame)                       : 0.101

Stream size                              : 3.68 GiB (85%)

Writing library                          : x264 core 157 r2935 545de2f

Encoding settings                        : cabac=1 / ref=2 / deblock=1:0:0 / analyse=0x1:0x111 / me=hex / subme=6 / psy=1 / psy_rd=1.00:0.00 / mixed_ref=1 / me_range=16 / chroma_me=1 / trellis=1 / 8x8dct=0 / cqm=0 / deadzone=21,11 / fast_pskip=1 / chroma_qp_offset=-2 / threads=12 / lookahead_threads=2 / sliced_threads=0 / nr=0 / decimate=1 / interlaced=0 / bluray_compat=0 / constrained_intra=0 / bframes=3 / b_pyramid=2 / b_adapt=1 / b_bias=0 / direct=1 / weightb=1 / open_gop=0 / weightp=1 / keyint=240 / keyint_min=24 / scenecut=40 / intra_refresh=0 / rc_lookahead=30 / rc=abr / mbtree=1 / bitrate=5000 / ratetol=1.0 / qcomp=0.60 / qpmin=0 / qpmax=69 / qpstep=4 / vbv_maxrate=50000 / vbv_bufsize=62500 / nal_hrd=none / filler=0 / ip_ratio=1.40 / aq=1:1.00

Default                                  : Yes

Forced                                   : No

Color range                              : Limited

Color primaries                          : BT.709

Transfer characteristics                 : BT.709

Matrix coefficients                      : BT.709



Audio #1

ID                                       : 2

Format                                   : AC-3

Format/Info                              : Audio Coding 3

Commercial name                          : Dolby Digital

Codec ID                                 : A_AC3

Duration                                 : 1 h 46 min

Bit rate mode                            : Constant

Bit rate                                 : 448 kb/s

Channel(s)                               : 6 channels

Channel layout                           : L R C LFE Ls Rs

Sampling rate                            : 48.0 kHz

Frame rate                               : 31.250 FPS (1536 SPF)

Compression mode                         : Lossy

Stream size                              : 341 MiB (8%)

Language                                 : Italian

Service kind                             : Complete Main

Default                                  : Yes

Forced                                   : No



Audio #2

ID                                       : 3

Format                                   : AC-3

Format/Info                              : Audio Coding 3

Commercial name                          : Dolby Digital

Codec ID                                 : A_AC3

Duration                                 : 1 h 46 min

Bit rate mode                            : Constant

Bit rate                                 : 448 kb/s

Channel(s)                               : 6 channels

Channel layout                           : L R C LFE Ls Rs

Sampling rate                            : 48.0 kHz

Frame rate                               : 31.250 FPS (1536 SPF)

Compression mode                         : Lossy

Stream size                              : 341 MiB (8%)

Title                                    : DTS

Language                                 : Japanese

Service kind                             : Complete Main

Default                                  : No

Forced                                   : No











Discussion

Comments 0

Post Your Comment

Files in this torrent

FILENAMESIZE
A te che conosci l.azzurro del cielo-Her Blue Sky (2019) ITA-JAP Ac3 5.1 BDRip 1080p H264 [ArMor].mkv4.3 GB
A.te.che.conosci.l.azzurro.del.cielo.2019.ITA-JAP.Bluray.1080p_ita.srt127.6 KB
A.te.che.conosci.l.azzurro.del.cielo.2019.ITA-JAP.Bluray.1080p_ita_forced.srt13 KB
lyu780975e8w4562dbs.jpg125.3 KB

Alternative Torrents for 'te che conosci azzurro del cieloHer Blue Sky JAP'.

There are no alternative torrents found.