American Pie Presents Girls Rules 2020 BDRip 1080p

Torrent Details

American Pie Presents Girls Rules 2020 BDRip 1080p

NAME
American Pie Presents Girls Rules 2020 BDRip 1080p.torrent
CATEGORY
Movies
INFOHASH
e0c6dceab97cd255248ed27ec1ef23b52e70de92
SIZE
12.8 GB in 1 file
ADDED
Uploaded on 12-01-2021 by our crawler pet called "Spidey".
SWARM
1 seeders & 0 peers
RATING
No votes yet.

Please login to vote for this torrent.


Description

Информация о фильме

Название: Американский пирог представляет: Правила для девочек

Оригинальное название: American Pie Presents: Girls' Rules

Год выхода: 2020

Жанр: Комедия

Режиссер: Майк Эллиот

В ролях: Мэдисон Петтис, Лиззи Бродвей, Наташа Бехнам, Пайпер Курда, Даррен Барнет, Захари Гордон, Камерон Энджелс, Зэйн Эмори, Сара Рю, Дэнни Трехо, Бэрри Боствик



О фильме:

Четыре очаровательных выпускницы готовятся оторваться по полной программе. Они иногда забывают о том, что повторять все подвиги мальчиков может быть опасно. Героинями комедийной картины «Американский пирог: Женские правила» являются лучшие подруги. Энни, Кайла, Мишель и Стефани только начинают познавать окружающий мир и знакомиться с его соблазнами. Иногда получается неважно, красавицам не хватает опыта и смелости, чтобы осуществлять желания, но верные подружки помогают. Они любят собираться у костра, прихватив по бутылочке шампанского и строить далеко идущие планы. Красотки решают, что вполне способны получить признание противоположного пола и заключают пари. Начинается веселая пора, которая покажет, что все не так плохо. Приключения становятся все более отчаянными, дружная четверка посещает пляж и очень удивляет окружающую публику. Они знакомятся с новыми парнями и покоряют сердца старых товарищей, стремятся к студенческой жизни и отмечают уход в прошлое школьных проблем. Смогут ли девчонки добиться успеха? Некоторые эксперименты получаются более чем смелыми и доказывают, что нет предела исполнению желаний, если за дело берутся юные красотки.









Страна: США

Студия: Capital Arts Entertainment, Universal 1440 Entertainment

Продолжительность: 01:35:21

Перевод: Дублированный | iTunes



Файл

Формат: MKV

Качество: BDRip 1080p

Видео: MPEG-4 AVC, 17.3 Mбит/с, 1920x1080

Аудио #01: AC3, 6 ch, 384 Кбит/с | RUS

Аудио #02: DTS, 6 ch, 1509 Кбит/с | ENG

Субтитры: Русские, английские



Скриншоты MIОбщее

Уникальный идентификатор : 245973497827534450607762069590669928297 (0xB90CC5C28176C4D5DE1DF394175E2769)

Полное имя : D:American.Pie.Presents.Girls.Rules.2020.BDRip.1080p.mkv

Формат : Matroska

Версия формата : Version 4

Размер файла : 12,8 Гбайт

Продолжительность : 1 ч. 35 м.

Общий поток : 19,2 Мбит/сек

Дата кодирования : UTC 2021-01-12 00:56:35

Программа кодирования : mkvmerge v40.0.0 ('Old Town Road + Pony') 64-bit

Библиотека кодирования : libebml v1.3.9 + libmatroska v1.5.2



Видео

Идентификатор : 1

Формат : AVC

Формат/Информация : Advanced Video Codec

Профиль формата : [email protected]

Настройки формата : 2 Ref Frames

Параметр CABAC формата : Нет

Параметр RefFrames формата : 2 кадра

Параметр GOP формата : M=3, N=24

Идентификатор кодека : V_MPEG4/ISO/AVC

Продолжительность : 1 ч. 35 м.

Битрейт : 17,3 Мбит/сек

Ширина : 1 920 пикселей

Высота : 1 080 пикселей

Соотношение сторон : 16:9

Режим частоты кадров : Постоянный

Частота кадров : 23,976 (24000/1001) кадра/сек

Цветовое пространство : YUV

Субдискретизация насыщенности : 4:2:0

Битовая глубина : 8 бит

Тип развёртки : Прогрессивная

Бит/(Пиксели*Кадры) : 0.348

Размер потока : 11,5 Гбайт (90%)

Язык : English

Default : Да

Forced : Нет

Цветовой диапазон : Limited

Основные цвета : BT.709

Характеристики трансфера : BT.709

Коэффициенты матрицы : BT.709



Аудио #1

Идентификатор : 2

Формат : AC-3

Формат/Информация : Audio Coding 3

Коммерческое название : Dolby Digital

Идентификатор кодека : A_AC3

Продолжительность : 1 ч. 35 м.

Вид битрейта : Постоянный

Битрейт : 384 Кбит/сек

Каналы : 6 каналов

Channel layout : L R C LFE Ls Rs

Частота : 48,0 КГц

Частота кадров : 31,250 кадров/сек (1536 SPF)

Метод сжатия : С потерями

Задержка видео : 13 мс.

Размер потока : 262 Мбайт (2%)

Язык : Russian

Service kind : Complete Main

Default : Да

Forced : Да



Аудио #2

Идентификатор : 3

Формат : DTS

Формат/Информация : Digital Theater Systems

Идентификатор кодека : A_DTS

Продолжительность : 1 ч. 35 м.

Вид битрейта : Постоянный

Битрейт : 1 509 Кбит/сек

Каналы : 6 каналов

Channel layout : C L R Ls Rs LFE

Частота : 48,0 КГц

Частота кадров : 93,750 кадра/сек (512 SPF)

Битовая глубина : 16 бит

Метод сжатия : С потерями

Задержка видео : 2 мс.

Размер потока : 1,01 Гбайт (8%)

Язык : English

Default : Нет

Forced : Нет



Текст #1

Идентификатор : 4

Формат : UTF-8

Идентификатор кодека : S_TEXT/UTF8

Идентификатор кодека/Информация : UTF-8 Plain Text

Продолжительность : 1 ч. 34 м.

Битрейт : 113 бит/сек

Count of elements : 1561

Размер потока : 79,2 Кбайт (0%)

Язык : Russian

Default : Нет

Forced : Нет



Текст #2

Идентификатор : 5

Формат : UTF-8

Идентификатор кодека : S_TEXT/UTF8

Идентификатор кодека/Информация : UTF-8 Plain Text

Продолжительность : 1 ч. 35 м.

Битрейт : 94 бит/сек

Count of elements : 1961

Размер потока : 65,9 Кбайт (0%)

Язык : English

Default : Нет

Forced : Нет

Discussion

Comments 0

Post Your Comment

Files in this torrent

FILENAMESIZE
American.Pie.Presents.Girls.Rules.2020.BDRip.1080p.mkv12.8 GB

Alternative Torrents for 'American Pie Presents Girls Rules'.

TORRENT NAMEADDEDSIZESEEDSPEERSHEALTH
9/30/2020847 MB40020
11/8/2020695 MB1478
10/7/2020877 MB6711
10/7/20201.8 GB4934
1/1/2021865 MB467
11/8/20202.8 GB272
11/10/20206.8 GB200
10/9/20206.9 GB207
10/6/20206.5 GB192
10/6/2020797 MB163
9/30/20201.5 GB151
1/1/20211.5 GB124
1/1/202113.8 GB112
10/9/20201.4 GB91
1/5/20211.5 GB70