The Power (2021) Hindi 1080p WEBDL X264 AAC ESub

Torrent Details

The Power (2021)  Hindi 1080p WEBDL x264 AAC  ESub

NAME
The Power (2021) Hindi 1080p WEBDL x264 AAC ESub.torrent
CATEGORY
Movies
INFOHASH
ce793ab8470866f42192b510297119fe6a421b21
SIZE
1.7 GB in 1 file
ADDED
Uploaded on 14-01-2021 by our crawler pet called "Spidey".
SWARM
132 seeders & 26 peers
RATING
No votes yet.

Please login to vote for this torrent.


Description

The Power (2021):
The Power is an action thriller which has been directed by the seasoned director Mahesh Manjrekar.

Cast: Vidyut Jammwal and Shruti Hassan, Mahesh Manjrekar,
Sachin Khedekar, Prateik Babbar, Jisshu Sengupta.

Format : Matroska
Format version : Version 4
File size : 1.72 GiB
Duration : 2 h 33 min
Overall bit rate mode : Variable
Overall bit rate : 1 604 kb/s

Video
ID : 1
Format : AVC
Format/Info : Advanced Video Codec
Format profile : [email protected]
Format settings : CABAC / 4 Ref Frames
Format settings, CABAC : Yes
Format settings, Reference frames : 4 frames
Codec ID : V_MPEG4/ISO/AVC
Duration : 2 h 33 min
Bit rate mode : Variable
Bit rate : 1 537 kb/s
Maximum bit rate : 3 805 kb/s
Width : 1 920 pixels
Height : 1 080 pixels
Display aspect ratio : 16:9
Frame rate mode : Constant
Frame rate : 25.000 FPS
Standard : PAL
Color space : YUV
Chroma subsampling : 4:2:0
Bit depth : 8 bits
Scan type : Progressive
Bits/(Pixel*Frame) : 0.030
Stream size : 1.65 GiB (96%)
Title : Madras Talkes.com
Language : Hindi
Default : Yes

Audio
ID : 2
Format : AAC LC
Format/Info : Advanced Audio Codec Low Complexity
Codec ID : A_AAC-2
Duration : 2 h 33 min
Bit rate : 64.0 kb/s
Channel(s) : 2 channels
Channel layout : L R
Sampling rate : 48.0 kHz
Frame rate : 46.875 FPS (1024 SPF)
Compression mode : Lossy
Stream size : 70.2 MiB (4%)
Title : Madras Talkies.com
Language : Hindi
Default : Yes
Forced : No

Text #1
ID : 3
Format : UTF-8
Codec ID : S_TEXT/UTF8
Codec ID/Info : UTF-8 Plain Text
Duration : 2 h 29 min
Bit rate : 50 b/s
Count of elements : 2426
Stream size : 55.4 KiB (0%)
Title : Madras Talkies.com
Language : English
Default : Yes
Forced : No

Text #2
ID : 4
Format : UTF-8
Codec ID : S_TEXT/UTF8
Codec ID/Info : UTF-8 Plain Text
Duration : 2 h 29 min
Bit rate : 50 b/s
Count of elements : 2428
Stream size : 55.5 KiB (0%)
Title : Madras Talkies.com
Language : English
Default : No
Forced : No

Discussion

Comments 0

Post Your Comment

Files in this torrent

FILENAMESIZE
The Power (2021) Hindi 1080p WEBDL x264 AAC. ESub.mkv1.7 GB

Alternative Torrents for 'Power Hindi AAC ESub'.

TORRENT NAMEADDEDSIZESEEDSPEERSHEALTH
1/14/20211.7 GB13226
2/2/20211.4 GB130107
1/14/20211.2 GB8311
8/14/20201.1 GB122
1/14/20211.7 GB112
8/14/20201.1 GB80
8/14/20201.4 GB71
1/14/2021803 MB30
1/6/2021531 MB30
1/14/20211.9 GB21
3/2/20201.1 GB25
1/14/20211 GB10
1/6/2021845 MB10
11/21/2020546 MB12
1/13/20202.5 GB00