The Mandalorian S01-S02 1080p DSNP WEBRip DD 5.1 X265-SHAM

Torrent Details

The Mandalorian S01-S02 1080p DSNP WEBRip DD 5.1 x265-SHAM

NAME
The Mandalorian S01-S02 1080p DSNP WEBRip DD 5.1 x265-SHAM.torrent
CATEGORY
Television
INFOHASH
a14e60c7812ff9bf43bdf293e7ba239d2d82e41a
SIZE
16.9 GB in 16 files
ADDED
Uploaded on 15-01-2021 by our crawler pet called "Spidey".
SWARM
0 seeders & 2 peers
RATING
No votes yet.

Please login to vote for this torrent.


Description





Format                                   : Matroska



Format version                           : Version 4

File size                                : 727 MiB

Duration                                 : 39 min 37 s

Overall bit rate                         : 2 564 kb/s

Encoded date                             : UTC 2020-02-12 09:53:27

Writing application                      : mkvmerge v43.0.0 ('The Quartermaster') 64-bit

Writing library                          : libebml v1.3.10 + libmatroska v1.5.2



Video

ID                                       : 1

Format                                   : HEVC

Format/Info                              : High Efficiency Video Coding

Format profile                           : [email protected]@Main

Codec ID                                 : V_MPEGH/ISO/HEVC

Duration                                 : 39 min 37 s

Bit rate                                 : 2 178 kb/s

Width                                    : 1 920 pixels

Height                                   : 804 pixels

Display aspect ratio                     : 2.40:1

Frame rate mode                          : Constant

Frame rate                               : 23.976 (24000/1001) FPS

Color space                              : YUV

Chroma subsampling                       : 4:2:0

Bit depth                                : 8 bits

Bits/(Pixel*Frame)                       : 0.059

Stream size                              : 617 MiB (85%)

Writing library                          : x265 3.2.1+1-b5c86a64bbbe:[Windows][GCC 9.2.0][64 bit] 8bit+10bit+12bit

Encoding settings                        : cpuid=1111039 / frame-threads=4 / numa-pools=16 / wpp / no-pmode / no-pme / no-psnr / no-ssim / log-level=2 / input-csp=1 / input-res=1920x804 / interlace=0 / total-frames=0 / level-idc=41 / high-tier=1 / uhd-bd=0 / ref=3 / no-allow-non-conformance / no-repeat-headers / annexb / no-aud / no-hrd / info / hash=0 / no-temporal-layers / open-gop / min-keyint=24 / keyint=240 / gop-lookahead=0 / bframes=4 / b-adapt=0 / b-pyramid / bframe-bias=0 / rc-lookahead=15 / lookahead-slices=5 / scenecut=40 / radl=0 / no-splice / no-intra-refresh / ctu=64 / min-cu-size=8 / no-rect / no-amp / max-tu-size=32 / tu-inter-depth=1 / tu-intra-depth=1 / limit-tu=0 / rdoq-level=0 / dynamic-rd=0.00 / no-ssim-rd / signhide / no-tskip / nr-intra=0 / nr-inter=0 / no-constrained-intra / strong-intra-smoothing / max-merge=2 / limit-refs=3 / no-limit-modes / me=1 / subme=2 / merange=57 / temporal-mvp / no-hme / weightp / no-weightb / no-*censored*yze-src-pics / deblock=0:0 / sao / no-sao-non-deblock / rd=2 / selective-sao=4 / no-early-skip / rskip / fast-intra / no-tskip-fast / no-cu-lossless / no-b-intra / no-splitrd-skip / rdpenalty=0 / psy-rd=2.00 / psy-rdoq=0.00 / no-rd-refine / no-lossless / cbqpoffs=0 / crqpoffs=0 / rc=abr / bitrate=2180 / qcomp=0.60 / qpstep=4 / stats-write=0 / stats-read=2 / cplxblur=20.0 / qblur=0.5 / ipratio=1.40 / pbratio=1.30 / aq-mode=2 / aq-strength=1.00 / cutree / zone-count=0 / no-strict-cbr / qg-size=32 / no-rc-grain / qpmax=69 / qpmin=0 / no-const-vbv / sar=1 / overscan=0 / videoformat=5 / range=0 / colorprim=1 / transfer=1 / colormatrix=1 / chromaloc=0 / display-window=0 / cll=0,0 / min-luma=0 / max-luma=255 / log2-max-poc-lsb=8 / vui-timing-info / vui-hrd-info / slices=1 / no-opt-qp-pps / no-opt-ref-list-length-pps / no-multi-pass-opt-rps / scenecut-bias=0.05 / no-opt-cu-delta-qp / no-aq-motion / no-hdr / no-hdr-opt / no-dhdr10-opt / no-idr-recovery-sei / *censored*ysis-reuse-level=5 / scale-factor=0 / refine-intra=0 / refine-inter=0 / refine-mv=1 / refine-ctu-distortion=0 / no-limit-sao / ctu-info=0 / no-lowpass-dct / refine-*censored*ysis-type=0 / copy-pic=1 / max-ausize-factor=1.0 / no-dynamic-refine / no-single-sei / no-hevc-aq / no-svt / no-field / qp-adaptation-range=1.00

Default                                  : Yes

Forced                                   : No

Color range                              : Limited

Color primaries                          : BT.709

Transfer characteristics                 : BT.709

Matrix coefficients                      : BT.709



Audio

ID                                       : 2

Format                                   : AC-3

Format/Info                              : Audio Coding 3

Commercial name                          : Dolby Digital

Codec ID                                 : A_AC3

Duration                                 : 39 min 37 s

Bit rate mode                            : Constant

Bit rate                                 : 384 kb/s

Channel(s)                               : 6 channels

Channel layout                           : L R C LFE Ls Rs

Sampling rate                            : 48.0 kHz

Frame rate                               : 31.250 FPS (1536 SPF)

Compression mode                         : Lossy

Delay relative to video                  : -5 ms

Stream size                              : 109 MiB (15%)

Language                                 : English

Service kind                             : Complete Main

Default                                  : Yes

Forced                                   : No



Text

ID                                       : 3

Format                                   : ASS

Codec ID                                 : S_TEXT/ASS

Codec ID/Info                            : Advanced Sub Station Alpha

Duration                                 : 35 min 34 s

Bit rate                                 : 53 b/s

Count of elements                        : 303

Compression mode                         : Lossless

Stream size                              : 13.9 KiB (0%)

Language                                 : English

Default                                  : Yes

Forced                                   : No



Discussion

Comments 0

Post Your Comment

Files in this torrent

FILENAMESIZE
The.Mandalorian.S01.1080p.DSNP.WEBRip.DD5.1.x265-SHAM/The.Mandalorian.S01E01.Chapter.1.1080p.DSNP.WEBRip.DD5.1.x265-SHAM.mkv726.6 MB
The.Mandalorian.S01.1080p.DSNP.WEBRip.DD5.1.x265-SHAM/The.Mandalorian.S01E02.Chapter.2.1080p.DSNP.WEBRip.DD5.1.x265-SHAM.mkv584.2 MB
The.Mandalorian.S01.1080p.DSNP.WEBRip.DD5.1.x265-SHAM/The.Mandalorian.S01E03.Chapter.3.1080p.DSNP.WEBRip.DD5.1.x265-SHAM.mkv696.4 MB
The.Mandalorian.S01.1080p.DSNP.WEBRip.DD5.1.x265-SHAM/The.Mandalorian.S01E04.Chapter.4.1080p.DSNP.WEBRip.DD5.1.x265-SHAM.mkv732.8 MB
The.Mandalorian.S01.1080p.DSNP.WEBRip.DD5.1.x265-SHAM/The.Mandalorian.S01E05.Chapter.5.1080p.DSNP.WEBRip.DD5.1.x265-SHAM.mkv699.3 MB
The.Mandalorian.S01.1080p.DSNP.WEBRip.DD5.1.x265-SHAM/The.Mandalorian.S01E06.Chapter.6.1080p.DSNP.WEBRip.DD5.1.x265-SHAM.mkv763.1 MB
The.Mandalorian.S01.1080p.DSNP.WEBRip.DD5.1.x265-SHAM/The.Mandalorian.S01E07.Chapter.7.1080p.DSNP.WEBRip.DD5.1.x265-SHAM.mkv815.7 MB
The.Mandalorian.S01.1080p.DSNP.WEBRip.DD5.1.x265-SHAM/The.Mandalorian.S01E08.Chapter.8.1080p.DSNP.WEBRip.DD5.1.x265-SHAM.mkv903.3 MB
The.Mandalorian.S02.1080p.DSNP.WEBRip.DD5.1.x265-SHAM/The.Mandalorian.S02E01.Chapter.9.1080p.DSNP.WEBRip.DD5.1.x265-SHAM.mkv975.1 MB
The.Mandalorian.S02.1080p.DSNP.WEBRip.DD5.1.x265-SHAM/The.Mandalorian.S02E02.Chapter.10.1080p.DSNP.WEBRip.DD5.1.x265-SHAM.mkv1.5 GB
The.Mandalorian.S02.1080p.DSNP.WEBRip.DD5.1.x265-SHAM/The.Mandalorian.S02E03.Chapter.11.1080p.DSNP.WEBRip.DD5.1.x265-SHAM.mkv1.2 GB
The.Mandalorian.S02.1080p.DSNP.WEBRip.DD5.1.x265-SHAM/The.Mandalorian.S02E04.Chapter.12.1080p.DSNP.WEBRip.DD5.1.x265-SHAM.mkv1.5 GB
The.Mandalorian.S02.1080p.DSNP.WEBRip.DD5.1.x265-SHAM/The.Mandalorian.S02E05.Chapter.13.1080p.DSNP.WEBRip.DD5.1.x265 -SHAM.mkv1.8 GB
The.Mandalorian.S02.1080p.DSNP.WEBRip.DD5.1.x265-SHAM/The.Mandalorian.S02E06.Chapter.14.1080p.DSNP.WEBRip.DD5.1.x265-SHAM.mkv1.2 GB
The.Mandalorian.S02.1080p.DSNP.WEBRip.DD5.1.x265-SHAM/The.Mandalorian.S02E07.Chapter.15.1080p.DSNP.WEBRip.DD5.1.x265-SHAM.mkv1.4 GB
The.Mandalorian.S02.1080p.DSNP.WEBRip.DD5.1.x265-SHAM/The.Mandalorian.S02E08.Chapter.16.1080p.DSNP.WEBRip.DD5.1.x265-SHAM.mkv1.7 GB

Alternative Torrents for 'Mandalorian SS DSNP DD SHAM'.

There are no alternative torrents found.