Lost Girls And Love Hotels 2020 PROPER 1080p BluRay X264 ELEKTRI4KA UNIONGANG

Torrent Details

Lost Girls and Love Hotels 2020 PROPER 1080p BluRay x264<span style=color:#fc9c6d> ELEKTRI4KA UNIONGANG</span>

NAME
Lost Girls and Love Hotels 2020 PROPER 1080p BluRay x264 ELEKTRI4KA UNIONGANG.torrent
CATEGORY
Movies
INFOHASH
cb40cb2cfe79d3a210721ff40776117060f07efe
SIZE
13.8 GB in 1 file
ADDED
Uploaded on 16-01-2021 by our crawler pet called "Spidey".
SWARM
3 seeders & 1 peers
RATING
No votes yet.

Please login to vote for this torrent.


Description

Информация о фильме

Название: Все оттенки Токио

Оригинальное название: Lost Girls and Love Hotels

Год выхода: 2020

Жанр: драма, триллер

Режиссер: Уильям Олссон

В ролях: Александра Даддарио, Такэхиро Хира, Кэрис ван Хаутен, Даша Тэраниси, Марико Цуцуи, Анастасия Насу, Эндрю Ротни, Элизабет Ларена, Асука Куросава, Кейт Кастонгуэй



О фильме: Пытаясь бежать от прошлого, Маргарет переезжает в Японию. Днем она преподает английский, а ночью ищет впечатлений в экзотической жизни Токио с его шумными барами, опасными связями и отелями любви. Но однажды в городе пропадает очень похожая на нее девушка, а саму Маргарет затягивает безумный роман с загадочным красавцем-якудза, который втягивает ее в мир запретных наслаждений.







Страна: США, Япония

Студия: Blackbird, Wandering Trail Pictures

Продолжительность: 01:36:56

Озвучивание: Дублированный



Файл

Формат: MKV

Качество: BDRip 1080p

Видео: MPEG-4 AVC, 16.9 Mb/s, 1920x1038, 24.000 fps

Аудио 1: 48 kHz, AC3 Dolby Digital, 3/2 (L, C, R, l, r) + LFE ch, ~384 kbps | русский

Аудио 2: 48 kHz, DTS-HD MA, 3/2 (L, C, R, l, r) + LFE ch, ~3100 kbps | английский

Субтитры: Нет

Дополнительно: Сохранены оригинальные чаптеры

Скачать: Сэмпл



Релиз группы &



MediaInfo:General

Unique ID : 72326871093073226812216418174277357916 (0x3669A610095C2E9BEBDAF2D33C2D915C)

Complete name : N:Lost.Girls.and.Love.Hotels.2020.PROPER.1080p.BluRay.x264.ELEKTRI4KA.UNIONGANG.mkv

Format : Matroska

Format version : Version 4

File size : 13.8 GiB

Duration : 1 h 36 min

Overall bit rate mode : Variable

Overall bit rate : 20.4 Mb/s

Movie name : Lost Girls and Love Hotels (2020) Colosal for ELEKTRI4KA

Encoded date : UTC 2021-01-15 22:13:18

Writing application : mkvmerge v52.0.0 ('Secret For The Mad') 64-bit

Writing library : libebml v1.4.1 + libmatroska v1.6.2



Video

ID : 1

Format : AVC

Format/Info : Advanced Video Codec

Format profile : [email protected]

Format settings : CABAC / 4 Ref Frames

Format settings, CABAC : Yes

Format settings, Reference frames : 4 frames

Codec ID : V_MPEG4/ISO/AVC

Duration : 1 h 36 min

Bit rate : 16.9 Mb/s

Width : 1 920 pixels

Height : 1 038 pixels

Display aspect ratio : 1.85:1

Frame rate mode : Constant

Frame rate : 24.000 FPS

Color space : YUV

Chroma subsampling : 4:2:0

Bit depth : 8 bits

Scan type : Progressive

Bits/(Pixel*Frame) : 0.353

Stream size : 11.4 GiB (83%)

Title : Lost Girls and Love Hotels (2020) Colosal for ELEKTRI4KA

Writing library : x264 core 161 r3027 4121277

Encoding settings : cabac=1 / ref=4 / deblock=1:-3:-3 / analyse=0x3:0x133 / me=umh / subme=9 / psy=1 / psy_rd=1.00:0.00 / mixed_ref=1 / me_range=16 / chroma_me=1 / trellis=2 / 8x8dct=1 / cqm=0 / deadzone=21, 11 / fast_pskip=0 / chroma_qp_offset=-2 / threads=32 / lookahead_threads=2 / sliced_threads=0 / nr=0 / decimate=1 / interlaced=0 / bluray_compat=0 / constrained_intra=0 / bframes=3 / b_pyramid=2 / b_adapt=2 / b_bias=0 / direct=3 / weightb=1 / open_gop=0 / weightp=2 / keyint=250 / keyint_min=24 / scenecut=40 / intra_refresh=0 / rc_lookahead=60 / rc=crf / mbtree=1 / crf=17.0 / qcomp=0.60 / qpmin=0 / qpmax=69 / qpstep=4 / ip_ratio=1.40 / aq=1:1.00

Language : English

Default : Yes

Forced : No



Audio #1

ID : 2

Format : AC-3

Format/Info : Audio Coding 3

Commercial name : Dolby Digital

Codec ID : A_AC3

Duration : 1 h 36 min

Bit rate mode : Constant

Bit rate : 384 kb/s

Channel(s) : 6 channels

Channel layout : L R C LFE Ls Rs

Sampling rate : 48.0 kHz

Frame rate : 31.250 FPS (1536 SPF)

Compression mode : Lossy

Stream size : 266 MiB (2%)

Title : Dub (DD 5.1)

Language : Russian

Service kind : Complete Main

Default : Yes

Forced : No



Audio #2

ID : 3

Format : DTS XLL

Format/Info : Digital Theater Systems

Commercial name : DTS-HD Master Audio

Codec ID : A_DTS

Duration : 1 h 36 min

Bit rate mode : Variable

Bit rate : 3 100 kb/s

Channel(s) : 6 channels

Channel layout : C L R Ls Rs LFE

Sampling rate : 48.0 kHz

Frame rate : 93.750 FPS (512 SPF)

Bit depth : 24 bits

Compression mode : Lossless

Stream size : 2.10 GiB (15%)

Title : Original (DTS-HD MA)

Language : English

Default : No

Forced : No



Menu

00:00:00.000 : en:Kapitel 01

00:04:18.583 : en:Kapitel 02

00:10:44.708 : en:Kapitel 03

00:16:31.250 : en:Kapitel 04

00:24:10.625 : en:Kapitel 05

00:33:42.875 : en:Kapitel 06

00:40:04.625 : en:Kapitel 07

00:45:47.708 : en:Kapitel 08

00:51:36.708 : en:Kapitel 09

00:55:53.750 : en:Kapitel 10

01:02:25.292 : en:Kapitel 11

01:09:24.042 : en:Kapitel 12

01:15:03.375 : en:Kapitel 13

01:23:38.833 : en:Kapitel 14

01:29:17.417 : en:Kapitel 15

01:32:20.208 : en:Kapitel 16

Скриншоты

Discussion

Comments 0

Post Your Comment

Files in this torrent

FILENAMESIZE
Lost.Girls.and.Love.Hotels.2020.PROPER.1080p.BluRay.x264.ELEKTRI4KA.UNIONGANG.mkv13.8 GB

Alternative Torrents for 'Lost Girls and Love Hotels PROPER BluRay'.

TORRENT NAMEADDEDSIZESEEDSPEERSHEALTH
1/16/202113.8 GB31
1/15/202113.5 GB12
1/17/20213.6 GB00
1/16/20213.6 GB01
1/16/202113.5 GB01
1/16/20213.6 GB03