Over The Moon 2020 NF WEB-DL 1080p

Torrent Details


Over the Moon 2020 NF WEB-DL 1080p

NAME
Over the Moon 2020 NF WEB-DL 1080p.torrent
CATEGORY
Anime
INFOHASH
76c99d0245b6e26a83bd33fdeea085c992c8c90a
SIZE
4.8 GB in 1 file
ADDED
Uploaded on 17-01-2021 by our crawler pet called "Spidey".
SWARM
4 seeders & 0 peers
RATING
No votes yet.

Please login to vote for this torrent.


Description

Информация о фильме

Название: Путешествие на Луну

Оригинальное название: Over the Moon

Год выхода: 2020

Жанр: мультфильм, мюзикл, фантастика, фэнтези, комедия, приключения, семейный







Режиссер: Глен Кин, Джон Карс





В ролях: Кэти Ан, Глен Кин, Брайсен Холл, Рути Энн Майлз, Джон Чо, Эди Итиока, Грег Ватанабэ, Элизабет Пан, Джеймс Таку Люн, Джозиа Д. Ли





О фильме:

История о девочке, которая строит ракету, чтобы отправиться на Луну и доказать своему отцу, что легендарная Богиня Луны существует.











Страна: Китай, США

Продолжительность: 01:40:17

Перевод: Профессиональный (дублированный) | [Невафильм по заказу Netflix]





Файл

Кодек: x.264

Качество: WEB-DL 1080p

Видео: AVC, 1920x1080 (16:9), 24.000 fps, 5 620 kb/s

Аудио 1: AC3, 48.0 kHz, 6 ch, 640 kb/s | DUB (Невафильм) RUS

Аудио 2: AC3, 48.0 kHz, 2 ch, 256 kb/s | P1 (В одне рило) UKR

Аудио 3: AC3, 48.0 kHz, 6 ch, 640 kb/s | ENG

Субтитры: Русские (forced, full), украинские (full), английские (SDH)





MIGeneral

Unique ID : 196163258057038666361553111726901143032 (0x9393AB5526D2E2ACA93642D3A94FA5F8)

Complete name : Over.the.Moon.2020.NF.WEB-DL.1080p.mkv

Format : Matroska

Format version : Version 4

File size : 4.83 GiB

Duration : 1 h 40 min

Overall bit rate mode : Variable

Overall bit rate : 6 893 kb/s

Encoded date : UTC 2021-01-17 13:38:54

Writing application : mkvmerge v8.3.0 ('Over the Horizon') 64bit

Writing library : libebml v1.3.1 + libmatroska v1.4.2



Video

ID : 1

Format : AVC

Format/Info : Advanced Video Codec

Format profile : [email protected]

Format settings : CABAC / 3 Ref Frames

Format settings, CABAC : Yes

Format settings, ReFrames : 3 frames

Codec ID : V_MPEG4/ISO/AVC

Duration : 1 h 40 min

Bit rate mode : Variable

Bit rate : 5 620 kb/s

Maximum bit rate : 8 430 kb/s

Width : 1 920 pixels

Height : 1 080 pixels

Display aspect ratio : 16:9

Frame rate mode : Constant

Frame rate : 24.000 FPS

Color space : YUV

Chroma subsampling : 4:2:0

Bit depth : 8 bits

Scan type : Progressive

Bits/(Pixel*Frame) : 0.113

Stream size : 3.75 GiB (78%)

Writing library : x264 core 148 r2722 1b0121b

Encoding settings : cabac=1 / ref=3 / deblock=1:0:0 / analyse=0x1:0x111 / me=umh / subme=10 / psy=1 / psy_rd=1.00:0.00 / mixed_ref=1 / me_range=24 / chroma_me=1 / trellis=2 / 8x8dct=0 / cqm=0 / deadzone=21,11 / fast_pskip=1 / chroma_qp_offset=-2 / threads=6 / lookahead_threads=1 / sliced_threads=0 / nr=0 / decimate=1 / interlaced=0 / bluray_compat=0 / stitchable=1 / constrained_intra=0 / bframes=2 / b_pyramid=0 / b_adapt=2 / b_bias=0 / direct=3 / weightb=1 / open_gop=0 / weightp=2 / keyint=250 / keyint_min=24 / scenecut=0 / intra_refresh=0 / rc_lookahead=48 / rc=2pass / mbtree=1 / bitrate=5620 / ratetol=1.0 / qcomp=0.50 / qpmin=6 / qpmax=51 / qpstep=4 / cplxblur=20.0 / qblur=0.5 / vbv_maxrate=8430 / vbv_bufsize=11240 / nal_hrd=vbr / filler=0 / ip_ratio=1.40 / aq=1:1.00

Default : Yes

Forced : No



Audio #1

ID : 2

Format : AC-3

Format/Info : Audio Coding 3

Commercial name : Dolby Digital

Codec ID : A_AC3

Duration : 1 h 40 min

Bit rate mode : Constant

Bit rate : 640 kb/s

Channel(s) : 6 channels

Channel layout : L R C LFE Ls Rs

Sampling rate : 48.0 kHz

Frame rate : 31.250 FPS (1536 SPF)

Bit depth : 16 bits

Compression mode : Lossy

Stream size : 459 MiB (9%)

Title : DUB (Невафильм)

Language : Russian

Service kind : Complete Main

Default : Yes

Forced : No



Audio #2

ID : 3

Format : AC-3

Format/Info : Audio Coding 3

Commercial name : Dolby Digital

Codec ID : A_AC3

Duration : 1 h 40 min

Bit rate mode : Constant

Bit rate : 256 kb/s

Channel(s) : 2 channels

Channel layout : L R

Sampling rate : 48.0 kHz

Frame rate : 31.250 FPS (1536 SPF)

Bit depth : 16 bits

Compression mode : Lossy

Stream size : 184 MiB (4%)

Title : P1 (В одне рило)

Language : Ukrainian

Service kind : Complete Main

Default : No

Forced : No



Audio #3

ID : 4

Format : AC-3

Format/Info : Audio Coding 3

Commercial name : Dolby Digital

Codec ID : A_AC3

Duration : 1 h 40 min

Bit rate mode : Constant

Bit rate : 640 kb/s

Channel(s) : 6 channels

Channel layout : L R C LFE Ls Rs

Sampling rate : 48.0 kHz

Frame rate : 31.250 FPS (1536 SPF)

Bit depth : 16 bits

Compression mode : Lossy

Stream size : 459 MiB (9%)

Language : English

Service kind : Complete Main

Default : No

Forced : No



Text #1

ID : 5

Format : UTF-8

Codec ID : S_TEXT/UTF8

Codec ID/Info : UTF-8 Plain Text

Duration : 1 h 34 min

Bit rate : 0 b/s

Count of elements : 4

Stream size : 171 Bytes (0%)

Title : Forced

Language : Russian

Default : Yes

Forced : No



Text #2

ID : 6

Format : UTF-8

Codec ID : S_TEXT/UTF8

Codec ID/Info : UTF-8 Plain Text

Duration : 1 h 34 min

Bit rate : 69 b/s

Count of elements : 1068

Stream size : 47.9 KiB (0%)

Title : Full

Language : Russian

Default : No

Forced : No



Text #3

ID : 7

Format : UTF-8

Codec ID : S_TEXT/UTF8

Codec ID/Info : UTF-8 Plain Text

Duration : 1 h 34 min

Bit rate : 68 b/s

Count of elements : 1068

Stream size : 47.7 KiB (0%)

Title : Full

Language : Ukrainian

Default : No

Forced : No



Text #4

ID : 8

Format : UTF-8

Codec ID : S_TEXT/UTF8

Codec ID/Info : UTF-8 Plain Text

Duration : 1 h 29 min

Bit rate : 67 b/s

Count of elements : 1352

Stream size : 44.1 KiB (0%)

Title : SDH

Language : English

Default : No

Forced : NoСкриншоты

Discussion

Comments 0

Post Your Comment

Files in this torrent

FILENAMESIZE
Over.the.Moon.2020.NF.WEB-DL.1080p.mkv4.8 GB

Alternative Torrents for 'Over Moon NF'.

TORRENT NAMEADDEDSIZESEEDSPEERSHEALTH
10/23/20201.5 GB1013
10/23/20204.3 GB296
10/23/20204.7 GB150
10/23/20202 GB93
11/15/20201.8 GB73
10/24/20201.5 GB60
1/17/20214.8 GB40
10/26/20201.5 GB10
10/24/20204.7 GB12
10/31/20206.2 GB01
10/26/2020878 MB00
10/24/20202.6 GB00