007 GoldenEye ITA ENG AC3 BDRip 1080p X265_ZMachine

Torrent Details


007 GoldenEye ITA ENG AC3 BDRip 1080p X265_ZMachine

NAME
007 GoldenEye ITA ENG AC3 BDRip 1080p X265_ZMachine.torrent
CATEGORY
Movies
INFOHASH
c75d273bd8c39b74ec3c7f42075f3ba16a2af1d8
SIZE
3.7 GB in 1 file
ADDED
Uploaded on 28-10-2014 by our crawler pet called "Spidey".
SWARM
0 seeders & 0 peers
RATING
No votes yet.

Please login to vote for this torrent.


Description

007: James Bond - GoldenEye
GoldenEye - ZMachine

:: Screenshots ::








:: Mediainfo ::

General
Unique ID : 219389617543922250635968290355988374433 (0xA50CE744AB2C13019228D54AA36BA3A1)
Complete name : E:17_Goldeneye07.GoldenEye.ITA.ENG.AC3.BDRip.1080p.X265_ZMachine.mkv
Format : Matroska
Format version : Version 4 / Version 2
File size : 3.71 GiB
Duration : 2h 10mn
Overall bit rate : 4 083 Kbps
Movie name : 007: GoldenEye -ZMachine
Encoded date : UTC 2014-10-16 20:30:49
Writing application : mkvmerge v7.2.0 ('On Every Street') 32bit built on Sep 13 2014 15:42:11
Writing library : libebml v1.3.0 + libmatroska v1.4.1

Video
ID : 1
Format : HEVC
Format/Info : High Efficiency Video Coding
Codec ID : V_MPEGH/ISO/HEVC
Duration : 2h 10mn
Bit rate : 3 106 Kbps
Width : 1 920 pixels
Height : 824 pixels
Display aspect ratio : 2.35:1
Frame rate mode : Constant
Frame rate : 23.976 fps
Bits/(Pixel*Frame) : 0.082
Stream size : 2.82 GiB (76%)
Title : Video H.265 (Encoded by ZMachine)
Default : Yes
Forced : Yes

Audio #1
ID : 2
Format : AC-3
Format/Info : Audio Coding 3
Mode extension : CM (complete main)
Format settings, Endianness : Big
Codec ID : A_AC3
Duration : 2h 10mn
Bit rate mode : Constant
Bit rate : 448 Kbps
Channel(s) : 6 channels
Channel positions : Front: L C R, Side: L R, LFE
Sampling rate : 48.0 KHz
Bit depth : 16 bits
Compression mode : Lossy
Stream size : 417 MiB (11%)
Title : Audio AC3
Language : Italian
Default : Yes
Forced : No

Audio #2
ID : 3
Format : AC-3
Format/Info : Audio Coding 3
Mode extension : CM (complete main)
Format settings, Endianness : Big
Codec ID : A_AC3
Duration : 2h 10mn
Bit rate mode : Constant
Bit rate : 448 Kbps
Channel(s) : 6 channels
Channel positions : Front: L C R, Side: L R, LFE
Sampling rate : 48.0 KHz
Bit depth : 16 bits
Compression mode : Lossy
Stream size : 417 MiB (11%)
Title : Audio AC3
Language : English
Default : No
Forced : No

Text #1
ID : 4
Format : ASS
Codec ID : S_TEXT/ASS
Codec ID/Info : Advanced Sub Station Alpha
Compression mode : Lossless
Title : Sub
Language : Italian
Default : No
Forced : No

Text #2
ID : 5
Format : ASS
Codec ID : S_TEXT/ASS
Codec ID/Info : Advanced Sub Station Alpha
Compression mode : Lossless
Title : Sub
Language : English
Default : No
Forced : No

Menu
00:00:00.000 : Opening Sequence
00:10:29.962 : Main Titles
00:13:20.132 : Aston Martin DB-5
00:17:06.316 : Baccarat with Xenia
00:24:23.378 : Test-Driving a Tiger
00:27:56.091 : Boris and Natalya
00:31:05.864 : Aiming GoldenEye
00:36:24.056 : After Hours Briefing
00:38:57.335 : Survivor
00:43:19.430 : M Informs her Spy
00:48:11.680 : St. Petersburg, Russia
00:50:29.192 : Q's Latest Gadgets
00:53:08.101 : Jake Wade
00:56:08.073 : Computerized Warning
00:57:47.005 : Getting Even
01:03:42.026 : 007 gets a grip
01:06:16.055 : "Back from the Dead"
01:11:04.969 : Trapped in the Tiger
01:13:20.270 : Interrogation
01:17:49.456 : Archives Ambush
01:19:54.456 : All Tanked Up
01:25:07.936 : Derailing Evil Plans
01:30:50.611 : Escape
01:34:26.160 : Wade drops in
01:40:12.297 : Crashing in Cuba
01:44:34.268 : Next Target: London
01:47:31.445 : Stopping a Satellite
01:50:41.343 : Philosophical Face-Off
01:56:01.120 : Taking a breather
02:00:53.704 : Spy versus Spy
02:04:35.009 : Alone at Last
02:06:33.002 : End Credits

Discussion

Comments 0

Post Your Comment

Files in this torrent

FILENAMESIZE
007.GoldenEye.ITA.ENG.AC3.BDRip.1080p.X265_ZMachine.mkv3.7 GB

Alternative Torrents for 'GoldenEye ENG XZMachine'.

There are no alternative torrents found.