Claires Knee[1970]DVDrip Xvid[french][subs English]

Torrent Details

Claires knee[1970]DVDrip Xvid[french][subs english]Claires knee[1970]DVDrip Xvid[french][subs english]

NAME
Claires knee[1970]DVDrip Xvid[french][subs english].torrent
CATEGORY
Movies
INFOHASH
cc5c64163c5819bf07c0b119b82a741caf9574a6
SIZE
701 MB in 16 files
ADDED
Uploaded on 31-10-2014 by our crawler pet called "Spidey".
SWARM
0 seeders & 0 peers
RATING
No votes yet.

Please login to vote for this torrent.


Description

http://www.imdb.com/title/tt0065772/


On holiday, a conflicted man lusts after beautiful stepsisters despite his betrothal to a diplomat's daughter.

Lang-French
Subs-English













Storyline
Cultural attache Jerome spends his last holidays as a bachelor at Lake Annecy where he meets Aurora, an Italian writer and old friend. She talks him into a flirt with his landlady's teenage daughter, Laura, but he falls for Laura's half-sister Claire and develops a desire to caress her knee.
“The title of this charming film by Eric Rohmer is perhaps too provocative. It really gives the wrong impression, yet Claire's knee is exactly the central point of the film, although in a way that will surprise you.

This is the story about a thirty-something year old diplomat, Jerome Montcharvin, who encounters two pretty girls, sixteen and eighteen years old, while on vacation at Lake Annecy in France (near Lake Geneva, Switzerland) a month before his wedding and finds that they affect him more strongly than he might have expected. It is especially Claire who brings out a side of his personality that is seldom exposed, much to the merry interest of his friend, Aurora, a writer, who has guided his interest in the girls, ostensibly as material for a story she is writing. Claire's Knee, it need be said immediately has not so much to do with the pretty girl's knee as it has to do with the protagonist's self-perception.

Jean-Claude Brialy, who plays Jerome Montcharvin, brings a veracious mix of smug confidence and little guy vulnerability to the part spiked with a clear case of self-delusion that illuminates his character very well. And the girls are indeed very pretty, with Laura, played with coquettish innocence by Béatrice Romand, also being clever and slyly sophisticated, vulnerable and honest. In contrast Claire, played by Laurence de Monaghan, whose fawn-like beauty is perfect for the part, seems superficial and ordinary and a bit distant. I found myself more attracted to Aurora, played with a gentle and understated irony by Aurora Cornu. She provides the objectifying point of view for us to realize that while Jerome imagines he is a man in touch with his feelings and has an objective understanding of himself, he is really a man who fools himself about his motivation, a man who can be ugly when frustrated, as he is by Claire's lack of interest in him.

The dialogue, written by director Eric Rohmer, which some have found excessive is anything but. It is instead clever and witty and at times profound as Rohmer relentlessly explores the nature of love, sex, sensuality and self-delusion. The cinematography of the lake and the French alps in the summer time is luscious, and the privileged, softly indulgent life style of the characters living around the lake provoked a twinge of jealousy in my soul. This is a beautiful film, worldly wise, warm, sensual and subtle as a dinner by candlelight.”


ormat : AVI
Format/Info : Audio Video Interleave
File size : 700 MiB
Duration : 1h 46mn
Overall bit rate mode : Variable
Overall bit rate : 923 Kbps
Writing application : VirtualDubMod 1.5.4.1 (build 2178/release)
Writing library : VirtualDubMod build 2178/release

Video
ID : 0
Format : MPEG-4 Visual
Format profile : Advanced [email protected]
Format settings, BVOP : 1
Format settings, QPel : No
Format settings, GMC : No warppoints
Format settings, Matrix : Custom
Codec ID : XVID
Codec ID/Hint : XviD
Duration : 1h 46mn
Bit rate : 851 Kbps
Width : 496 pixels
Height : 368 pixels
Display aspect ratio : 4:3
Frame rate : 23.976 fps
Color space : YUV
Chroma subsampling : 4:2:0
Bit depth : 8 bits
Scan type : Progressive
Compression mode : Lossy
Bits/(Pixel*Frame) : 0.194
Stream size : 645 MiB (92%)
Writing library : XviD 1.2.1 (UTC 2008-12-04)

Audio
ID : 1
Format : MPEG Audio
Format version : Version 1
Format profile : Layer 3
Codec ID : 55
Codec ID/Hint : MP3
Duration : 1h 46mn
Bit rate mode : Variable
Bit rate : 59.3 Kbps
Nominal bit rate : 64.0 Kbps
Channel(s) : 1 channel
Sampling rate : 48.0 KHz
Compression mode : Lossy
Stream size : 45.0 MiB (6%)
Alignment : Aligned on interleaves
Interleave, duration : 24 ms (0.58 video frame)
Interleave, preload duration : 310 ms
Writing library : LAME3.98r
Encoding settings : -m m -V 4 -q 2 -lowpass 16.5 --abr 64

Discussion

Comments 0

Post Your Comment

Files in this torrent

FILENAMESIZE
Claire's Knee.avi699.8 MB
Claire's Knee_preview.jpg487.6 KB
Claire's_Knee__Le_genou_de_Claire_1970.jpg96 KB
claires knee.odt53.9 KB
inf.odt35.8 KB
silverdust.gif30.4 KB
vlcsnap-00001.jpg18.7 KB
vlcsnap-00002.jpg27.7 KB
vlcsnap-00003.jpg24.4 KB
vlcsnap-00004.jpg21.4 KB
vlcsnap-00005.jpg17.7 KB
vlcsnap-00006.jpg16.7 KB
vlcsnap-00007.jpg29.3 KB
vlcsnap-00008.jpg24.1 KB
vlcsnap-00009.jpg21.5 KB
vlcsnap-00010.jpg13 KB

Alternative Torrents for 'Claires kneeDVDrip frenchsubs english'.

There are no alternative torrents found.